<?xml version="1.0" standalone="no"?>
<!DOCTYPE svg PUBLIC "-//W3C//DTD SVG 1.1//EN" "http://www.w3.org/Graphics/SVG/1.1/DTD/svg11.dtd" >
<svg xmlns="http://www.w3.org/2000/svg">
<metadata></metadata>
<defs>
<font id="zxx_camo_totalmedium" horiz-adv-x="1019" >
<font-face units-per-em="1000" ascent="800" descent="-200" />
<missing-glyph horiz-adv-x="420" />
<glyph unicode="&#xd;" horiz-adv-x="333" />
<glyph unicode=" "  horiz-adv-x="420" />
<glyph unicode="&#x09;" horiz-adv-x="420" />
<glyph unicode="&#xa0;" horiz-adv-x="420" />
<glyph unicode="!" horiz-adv-x="352" d="M104 667q22 9 39 7.5t54 -15.5q42 -16 58 -16q8 0 13 -2t8.5 -7.5t6 -13t3.5 -19.5q1 -17 -1.5 -23t-10.5 -9q-12 -5 -22 -18q-13 -23 57 -95q15 -15 22 -24.5t9.5 -17t2.5 -18.5q0 -15 -4 -24t-14 -16.5t-29 -13.5q-24 -8 -35 -24q-7 -11 -13.5 -12.5t-28.5 1.5 q-23 3 -27.5 1t-6.5 -16q-1 -9 -4 -14t-8.5 -6t-13 1.5t-17 9t-20.5 16.5q-35 30 -46 30q-12 0 -29 14q-17 13 -18.5 41.5t14.5 36.5q27 15 -10 50q-23 20 -23 36q0 13 11 25.5t23 12.5q7 0 9.5 6.5t2.5 30.5q0 63 48 85zM151 604q0 16 -13.5 18.5t-25.5 -11.5 q-9 -10 -5.5 -14t24.5 -7q13 -2 16.5 0.5t3.5 13.5zM285 394.5q0 6.5 -7 6.5t-7 -6.5t7 -6.5t7 6.5zM114 369q2 0 9.5 -3t12.5 -2t5 7q0 11 -16.5 11t-16.5 -6.5t6 -6.5zM281 542q4 10 18 8q9 -1 12 -5.5t3 -15.5q0 -13 -3 -16.5t-13 -3.5q-13 0 -18 9.5t1 23.5z" />
<glyph unicode="&#x22;" horiz-adv-x="261" d="M59 673q8 11 14 13.5t24 -0.5q12 -1 16 -2t12 -1.5t9.5 -0.5t11 0.5t14 1.5t19.5 2q28 3 37 1.5t20 -11.5q16 -16 16 -44q0 -15 -4 -30t-10.5 -25.5t-13.5 -13.5q-9 -3 -17 -47q-8 -42 -17 -49q-12 -11 -26.5 -5t-23.5 25q-11 23 -70 75q-45 38 -55 55.5t3 30.5q8 8 19 8 q10 0 22 17zM146 604q-19 12 -25.5 12.5t-10.5 -9.5q-1 -4 2.5 -10.5t9 -14t12.5 -14.5t14 -11.5t11 -4.5q8 0 8 19q0 20 -21 33z" />
<glyph unicode="#" horiz-adv-x="514" d="M315 663q32 21 68.5 19t52.5 -26q4 -7 -6.5 -42.5t-27 -72.5t-27.5 -48t-13.5 -20t-1.5 -31q2 -17 3.5 -23.5t5.5 -8.5t14 -3q16 -2 19 -7t4 -31q2 -36 -10 -57.5t-34 -21.5q-20 0 -23 7q-4 6 -41 2q-24 -2 -41 1t-51 16q-39 14 -49 15.5t-18 -6.5q-14 -12 -25 -6.5 t-14 27.5q-4 27 -12 41q-8 15 -5 31q3 9 -0.5 12.5t-16.5 6.5q-23 4 -40.5 23t-15.5 37q2 13 7.5 16.5t30.5 5.5q16 1 23 3t10.5 5t3.5 8q2 14 -19 26q-21 14 -22 32t19 33q12 9 24.5 11.5t44.5 1.5q52 -3 85 -13q26 -7 33 -6.5t20 10.5q18 14 45 33zM377 626 q-16 16 -54 -20l-27 -24l21 -22q22 -22 27 -19q4 1 13 21t15.5 41t4.5 23zM192 577.5q0 6.5 -10 6.5t-10 -6.5t10 -6.5t10 6.5zM238 478q13 12 -1 24q-14 11 -23 -3q-2 -4 0 -9.5t6.5 -9t9.5 -5t8 2.5zM305 461q-20 36 -27 19l-1 -12q0 -17 9 -26.5t21 -4.5q7 2 6.5 6 t-8.5 18zM362 375q0 32 -22 8q-11 -12 -3 -20q10 -10 17.5 -6.5t7.5 18.5zM228 381q-2 4 -14.5 6t-23.5 1t-11 -5q0 -5 21 -13q25 -9 30 2q1 4 -2 9zM280 356q-3 6 -10 6q-6 0 -3 -6q4 -7 10.5 -7t2.5 7zM460 495q7 12 25 10q7 -1 11 -3t6 -7t2 -14q2 -22 -12 -41 q-9 -13 -15 -16t-17 0q-13 4 -46 5l-15 1.5t-9 2.5t-5.5 4.5t-1.5 7.5q-2 11 4.5 21t18.5 15.5t26 3.5q23 -3 28 10z" />
<glyph unicode="$" horiz-adv-x="494" d="M257 670q10 8 21 10t34 0q18 -1 27 -2.5t15.5 -6t15.5 -14.5q12 -14 15 -23.5t2 -32.5l-2 -33l21 -2q13 -1 18.5 1.5t9.5 12.5q5 17 21 17q23 0 28.5 -16t-7.5 -42q-6 -13 -13.5 -16.5t-26.5 -4.5q-24 -2 -28.5 -5.5t-7.5 -22.5q-4 -26 5 -32q9 -5 9 -36t-13 -48.5 t-36 -17.5q-21 0 -29 -10t-41 -10h-32l4 -22q5 -27 -8 -33t-53 5q-43 11 -91 35q-70 34 -94 69.5t3 67.5q17 19 13 36q-4 21 5 33t29 12t21.5 3t-11.5 16t-13 36q0 16 8 26t25 15t44 6q42 1 49 12q6 11 27 7q20 -4 36 10zM326 628q-22 15 -32 4q-12 -11 15 -20q21 -8 25 1 q3 6 -8 15zM356 511q1 27 -1 32.5t-15 6.5q-16 2 -16 -6q0 -10 15 -54q16 -48 16 -62q0 -13 4 -14q3 0 6 6q3 7 5 19q3 24 -6 30q-10 5 -8 42zM281 503q-9 12 -25 15.5t-22 -6.5q-4 -7 2 -12t26 -14q21 -8 25.5 -4t-6.5 21zM92 420q-6 6 -13.5 7t-12.5 -4q-3 -3 1 -10 t11.5 -12.5t13.5 -5.5q8 0 8 8.5t-8 16.5zM191 384q-2 14 -23 16q-20 2 -24 -4.5t10 -16.5q11 -8 20 -10t13.5 2t3.5 13z" />
<glyph unicode="%" horiz-adv-x="553" d="M222 646q64 24 102 10t38 -61q0 -26 -6 -37q-6 -9 11 -27q16 -17 21 -17t12 15q8 17 1 29q-14 27 -1 50t49 35q16 5 23.5 4t18.5 -8q3 -2 9.5 -6t12 -7.5t12 -8.5t11 -9.5t7 -10t1.5 -11.5t-5 -11q-9 -11 -40.5 -10.5t-37.5 11.5q-3 5 -6 7t-5 0q-4 -5 6 -20 q12 -16 9 -28t-27 -48q-48 -73 -56 -164q-1 -20 -3 -28.5t-5 -12t-11 -4.5q-15 -2 -41 27q-19 22 -26.5 25.5t-33.5 0.5q-24 -2 -31.5 0t-16.5 14q-12 16 -16.5 16.5t-6.5 -13.5q-6 -42 -75 21q-26 23 -38.5 37t-17.5 24.5t-5 24.5q0 17 -24 31q-15 10 -18.5 16.5t-1.5 22.5 q1 15 6 21.5t20 13.5q16 8 20.5 14t4.5 20q0 39 44 37q44 -1 63.5 1.5t52.5 13.5zM307 604q-5 7 -27 5.5t-37 -9.5q-12 -6 -14 -10t2 -12q7 -12 19 -13t21 10q8 10 25 17q14 5 11 12zM334 488q-2 8 -32 10t-35 -5q-3 -6 7.5 -23.5t19.5 -20.5q8 -2 25.5 15t14.5 24zM329 375 q8 0 11 10t1 20q-1 6 -3 6.5t-7 -4.5t-7 -12.5t-0.5 -13.5t5.5 -6z" />
<glyph unicode="&#x26;" d="M364 695q26 20 47 20q10 0 25 -6.5t32 -18t34 -26.5l17 -16l20 15q19 14 34 12t17 -19q3 -16 -7 -26q-7 -5 -6 -10t12 -18t13.5 -21.5t0.5 -25.5q-5 -34 -12.5 -48t-21.5 -14q-8 0 -11 -2t-4.5 -7t-1.5 -17q0 -26 7 -30q7 -5 6 -19t-11 -25q-11 -13 -29.5 -11.5 t-28.5 16.5q-11 18 -29 17t-27 -18q-6 -13 -13 -15.5t-29 -2.5q-32 1 -53 12q-15 7 -18 14t-4 28q-1 67 -38 85q-15 7 -19 12.5t-4 17.5t3 16.5t11 5.5t11.5 6.5t4.5 19.5q2 17 5.5 21t18.5 5.5t18 5.5t3 22q0 12 2 18.5t7 12t18 14.5zM429 641q0 6 -8 7q-5 2 -5 -2 q0 -1 1 -2q3 -10 9 -7q3 1 3 4zM543 545q13 0 6 15.5t-16 8.5l-3 -4q-4 -7 0 -13.5t13 -6.5zM474 512q6 -9 10 -4q4 6 -5 16q-10 10 -11 4q-1 -5 6 -16zM10 -69.5q0 6.5 500 6.5t500 -6.5t-500 -6.5t-500 6.5z" />
<glyph unicode="(" horiz-adv-x="488" d="M205 637q6 0 24 7.5t34 14.5t32 9t18 -10q13 -37 40 -53q24 -15 41 -44t20 -61q3 -27 6 -32t20 -7q21 -2 30 -9t9 -21q0 -34 -45 -26q-28 4 -40 -7q-13 -12 -47 -8q-27 3 -28 2q-1 -2 6 -7l4 -2q52 -36 52 -51q0 -10 -17 -33q-13 -14 -21 -18t-29 -4q-25 0 -44 10t-50 38 q-19 18 -21 15q-1 -2 -1 -10q0 -16 -14 -30q-16 -16 -27 -32q-23 -33 -78 3q-45 28 -23 51q18 17 46 -6l17 -13l13 23q14 23 27 23q12 0 13 6t-11 10q-11 3 -67 10q-35 5 -48 9t-22 15q-19 21 -12 49t36 47q16 11 31 14.5t49 4.5l54 2l2 19q2 13 -0.5 15t-19.5 -2 q-20 -4 -44 -6q-16 0 -19.5 3t-5.5 16q-2 20 13 34q11 11 47 26.5t50 15.5zM352 537q-5 8 -10.5 11.5t-9.5 2.5t-5 -7q-8 -26 -11.5 -47.5t-0.5 -25.5q6 -5 28 -3q16 1 19 5t2 22q-3 26 -12 42zM168 460q-25 10 -55.5 5t-44.5 -21q-8 -9 1 -13q9 -3 56 -9q0 -1 2 -1 q44 -7 51 -5.5t7 16.5v2q0 12 -3.5 17.5t-13.5 8.5z" />
<glyph unicode=")" horiz-adv-x="357" d="M51 655q18 18 27.5 22.5t28.5 4.5q23 0 45.5 -9.5t34.5 -24.5q7 -9 11.5 -9t21.5 10q30 19 64 10.5t43 -36.5q6 -20 -11.5 -29t-30.5 7q-11 10 -26 8q-5 0 -8.5 -1.5t-5.5 -4t-3 -6.5t-2 -11q-1 -16 2 -18.5t23 -2.5q9 0 14.5 -1t11.5 -3.5t11 -6.5t12 -11 q20 -20 28.5 -46.5t5 -48.5t-19 -37.5t-38.5 -15.5q-25 0 -29 -11.5t7 -45.5q10 -29 6.5 -39t-23.5 -7q-15 1 -27 26q-8 15 -13 20.5t-9 1.5t-7 -18q-2 -9 -6 -14.5t-7.5 -7.5t-12 -5.5t-13.5 -5.5q-15 -7 -31 -3q-17 4 -20 -2q-8 -13 -28.5 -5t-20.5 23q0 9 -21 52 q-18 34 -16 49t24 15q9 0 15.5 -7t16.5 -25q21 -41 37 -45q6 -1 6 7q1 11 -11 36q-17 35 -22 79q-3 31 -7.5 39t-22.5 17q-45 23 -45 61q0 18 8.5 34t32.5 41zM152 607q-45 45 -75 3q-15 -19 -15 -29t36 -26.5t54 -14.5q11 1 15 5.5t5 17.5q2 13 -2 21.5t-18 22.5zM182 462 q-10 4 -22 7q-25 6 -26 -10q0 -15 17 -51q14 -30 18 -30q3 -1 8 6q8 11 9.5 43t-4.5 35z" />
<glyph unicode="*" horiz-adv-x="503" d="M186 644q10 6 67 4q29 -1 40.5 -2.5t19.5 -5.5t17 -13q13 -12 21.5 -15.5t23.5 -1.5q62 4 86 -50q14 -32 10 -45q-3 -14 10 -18q10 -3 12.5 -17.5t-6.5 -23.5q-5 -5 -11.5 -57.5t-9.5 -57.5q-6 -12 -21.5 -11t-29.5 16q-15 16 -20 16t-53 -36q-16 -12 -25.5 -18.5 t-18.5 -11t-16 -5.5t-17 -1q-21 0 -33 5t-20 17t-15 35q-11 39 -32 63l-22 25l-41 -27q-59 -37 -75.5 -30.5t-16.5 66.5q0 64 13 86t52 22q13 0 39.5 9t26.5 13.5t-8 15.5q-9 15 -0.5 31t25.5 16q19 0 28 7zM265 593q0 9 -2.5 10.5t-7.5 -5.5q-3 -6 3 -10q7 -4 7 5zM417 514 q-24 18 -46 18q-18 0 -20 -5t12 -18q13 -12 13 -40q0 -24 -9 -35t-61 -49q-41 -29 -41 -36q0 -12 19 -5q10 5 18 12q13 16 49.5 38.5t53.5 25.5q11 3 16.5 9t10.5 25q9 29 7 37t-22 23zM95 468q0 5 -8.5 5.5t-17.5 -2.5t-11 -8q-6 -16 5 -15q16 1 29 15q3 3 3 5zM277 458 q-15 16 -19.5 14t-1.5 -23q4 -24 7 -26.5t15 8.5l13 11zM206 460.5q0 6.5 -6.5 6.5t-6.5 -6.5t6.5 -6.5t6.5 6.5z" />
<glyph unicode="+" horiz-adv-x="332" d="M131 600q41 24 65.5 23.5t49.5 -26.5q20 -19 23 -28t2 -42l-3 -44l22 -3q20 -3 28.5 -14t1.5 -24q-10 -15 -22 -18.5t-31 3.5q-24 8 -30 1q-10 -9 -26 -6t-29 17q-15 16 -20 13q-3 -5 20 -31q15 -16 19.5 -26.5t4.5 -27.5q0 -14 -2.5 -21.5t-9.5 -15t-25 -23.5 q-26 -21 -35.5 -25.5t-25.5 -1.5q-28 4 -38.5 20.5t-13.5 59.5q-2 33 -5 42.5t-12 10.5q-13 2 -21 9q-9 8 -7.5 26.5t12.5 27.5q13 12 13 21q0 10 -13 27q-21 26 -7 63q6 17 26.5 18.5t24.5 -14.5q3 -14 16.5 -12t47.5 21zM208 565q-9 12 -14 12t-19 -10 q-22 -16 -11.5 -36.5t37.5 -16.5q14 2 17 20t-10 31zM141 375q-13 0 -22 15q-8 12 -10 6l-1 -25q0 -29 5.5 -32.5t26.5 11.5q26 19 11 24q-4 1 -10 1z" />
<glyph unicode="," horiz-adv-x="245" d="M147 510q22 19 44.5 14.5t22.5 -27.5q0 -13 -11 -25t-23 -12q-11 0 -16 -7q-3 -4 0 -9t8.5 -10t15.5 -9.5t21 -6.5q13 -4 18.5 -6.5t7 -6.5t1.5 -13t-1 -13t-5 -6t-13 -3q-22 -3 -25.5 -9.5t7.5 -21.5q13 -16 17.5 -35.5t-2.5 -32.5t-34 -13q-25 0 -42 -11 q-13 -6 -19 -5.5t-18 5t-21 4.5q-17 0 -21 12q-4 11 -26 31q-23 21 -23 41t23 34q20 13 40 13q19 0 35 13l16 13l-14 15q-15 16 -14 33.5t17 27.5q12 9 34 26zM108 312q3 5 -10 14q-15 9 -15 -3q0 -7 10 -11t15 0z" />
<glyph unicode="-" horiz-adv-x="227" d="M23 548q14 18 30 7t28 -48q6 -18 11.5 -25t14.5 -7q18 -3 32 6.5t16 26.5q1 14 4.5 17.5t16.5 3.5t18.5 -5t13.5 -21q12 -25 9 -45q-1 -10 -3 -14t-7 -6t-18 -4q-22 -2 -40 -19t-28 -42q-6 -15 -17.5 -17t-22.5 9.5t-16 31.5q-3 10 -7.5 13.5t-15.5 3.5q-21 0 -27.5 14 t-3.5 58q4 54 12 62z" />
<glyph unicode="." horiz-adv-x="337" d="M198 475q4 11 9 14.5t16 2.5q13 -2 17 -11t12 -56q11 -64 14 -67q4 -4 31 -17q17 -9 23.5 -15.5t7.5 -17.5q4 -35 -43 -18q-14 5 -20 4.5t-14 -6.5q-11 -11 -34 -11q-9 0 -15 2t-11 6t-11 12q-13 17 -21.5 18.5t-17.5 -12.5t-31.5 -12.5t-45.5 18.5q-57 42 -54 67 q2 10 7.5 13t26.5 4q22 2 26 5t4 20q0 21 14 30q11 5 41 4t45 -8q11 -4 15 4q2 8 9 27z" />
<glyph unicode="/" horiz-adv-x="416" d="M191 654q19 13 45 14.5t45 -8.5q14 -7 51 -21q28 -10 51.5 -31t23.5 -37t-14 -44q-9 -18 -15 -23t-21 -5q-19 0 -20.5 -6t11.5 -34t12 -43t-16 -28q-13 -10 -26 -11.5t-57 -0.5q-68 4 -68 -6q0 -5 11 -12q14 -10 12 -24q-4 -29 -88 -4q-94 28 -94 75q0 14 3.5 19.5 t15.5 10.5q16 6 42 4q10 -2 17 -2.5t7 0.5q0 2 -19 23q-20 22 -20 30q0 9 -10 9t-22 -7q-21 -13 -33.5 6t4.5 35q14 12 59.5 28.5t66.5 16.5h24v30q0 21 3.5 28.5t18.5 17.5zM183 516q-2 12 -21.5 15t-28.5 -8t-0.5 -23.5t32.5 -23.5q26 -12 34 -4t-2 19q-11 12 -14 25z M275 460q-20 12 -25.5 12.5t-11.5 -11.5q-7 -12 1 -19.5t28 -7.5q23 0 25 7t-17 19z" />
<glyph unicode="0" horiz-adv-x="416" d="M284 643q0 -8 6.5 -16t6.5 -17q0 -14 8 -16t21 9q15 15 39 14.5t34 -16.5q11 -18 7.5 -29t-21.5 -13q-21 -2 -28.5 -10.5t-7.5 -30.5q0 -23 -6 -42q-7 -17 7 -47q14 -29 10 -62q-2 -12 -4 -21t-5.5 -16.5t-7.5 -13t-10 -10t-13 -7t-15 -3.5q-26 -3 -37 -12t-28.5 -5.5 t-19.5 15.5t17.5 30t33.5 18q15 0 27 8t12 18q0 15 -7.5 15.5t-32.5 -11.5q-32 -16 -80 -16q-22 0 -32.5 -1t-15.5 -4t-9 -9q-6 -11 -21.5 -12t-23.5 9q-9 10 -4 26q2 11 -1 15.5t-17 10.5q-9 3 -15 8t-11 13.5t-10 22.5q-7 14 -12.5 31.5t-6.5 27.5q-2 16 1 23.5t16 19.5 q15 14 16 18t-9 13q-20 19 -10 35t38 11q15 -3 20.5 -1.5t10.5 10.5q6 12 25.5 22.5t36 10.5t20.5 7q6 7 51 2q41 -4 49 -7t8 -15zM218 610.5q0 6.5 -9.5 6.5t-9.5 -6.5t9.5 -6.5t9.5 6.5zM156 500q-2 4 -12.5 10.5t-20 9.5t-9.5 0q0 -8 16.5 -21t21.5 -9q8 3 4 10zM248 448 q-7 9 -31.5 3t-24.5 -17q0 -8 32 -3q26 4 25 14q0 1 -1 3z" />
<glyph unicode="1" horiz-adv-x="410" d="M130 631q15 10 50.5 10.5t110.5 -8.5q31 -4 41.5 -11t10.5 -24q0 -27 6 -35.5t25 -8.5q17 1 21 -2t5 -18q3 -20 -11 -47q-10 -20 -10.5 -28t7.5 -32q13 -38 4 -95.5t-30 -70.5q-6 -4 -12 -3t-11 4.5t-8.5 11t-5.5 17.5q-3 23 -16.5 24.5t-27.5 -18.5q-12 -16 -27.5 -19 t-25.5 8q-8 9 -41 6q-59 -6 -117 48q-23 22 -42 29q-12 5 -14.5 10t-0.5 23q4 26 20 47q7 9 18 31t26 35q13 11 15.5 18t0.5 28q-4 25 4 39t35 31zM186 525.5q0 6.5 -6.5 6.5t-6.5 -6.5t6.5 -6.5t6.5 6.5zM121 467q0 10 -6 12.5t-11 -6.5q-3 -6 0.5 -12.5t10.5 -6.5 q6 0 6 13zM202 433q-30 23 -35 9q-1 -2 -1 -4q0 -17 31 -26q11 -2 15.5 0t1.5 8t-12 13zM340 390q6 6 -4 25q-12 23 -23 5q-3 -4 2.5 -12.5t13.5 -14.5t11 -3z" />
<glyph unicode="2" horiz-adv-x="490" d="M196 667q20 29 40 -1q10 -16 36 -24q27 -7 51 -30q16 -13 24.5 -16.5t22.5 -0.5q4 1 8 1t7.5 -0.5t6 -1.5t5 -3t4.5 -5t3.5 -6t2.5 -7t1.5 -8.5t0.5 -10.5q0 -27 9 -25q5 2 12 14q11 24 31 20t20 -30q0 -18 -26 -39t-48 -21q-23 0 -33 15q-7 11 -10 11.5t-13 -9.5 q-13 -11 -10 -17t19 -6q37 0 71 -40q15 -18 15.5 -28.5t-12.5 -42.5q-6 -13 -11.5 -21.5t-13 -15t-19.5 -12.5q-28 -16 -44 -16t-35 16q-15 13 -24.5 14t-45.5 -4q-33 -5 -45.5 -4t-27.5 8q-20 9 -33 31t-14 44q0 17 -17 37q-10 13 -18.5 17t-26.5 4q-26 0 -37.5 12.5 t-11.5 40.5q0 8 1 13t3.5 10t6.5 9t11 9q22 17 39 20q18 5 24 19q8 22 27 39.5t39 20.5q25 4 35 20zM221 583q-24 13 -22 3q1 -6 16 -20t46 -14q29 0 29 7.5t-29 12.5q-28 4 -40 11zM88 512.5q0 6.5 -6.5 6.5t-6.5 -6.5t6.5 -6.5t6.5 6.5zM265 414.5q0 6.5 -13 6.5t-13 -6.5 t13 -6.5t13 6.5zM388 392q-2 10 -15.5 19.5t-18.5 4.5q-4 -3 -4 -36q0 -31 10 -31q9 0 19.5 16t8.5 27z" />
<glyph unicode="3" horiz-adv-x="502" d="M313 658q19 10 36.5 10.5t26.5 -9.5q8 -10 0 -37q-11 -36 -11 -47t10 -23l12 -15l-1 38q0 29 2 34t16 5q13 0 17.5 -4t8.5 -18q4 -23 34 -51q19 -20 24 -29.5t5 -27.5q0 -28 -18 -54q-20 -27 -31.5 -35t-28.5 -5q-12 3 -15.5 0.5t-6.5 -15.5q-3 -16 -26.5 -34t-41.5 -18 q-14 0 -39 10q-17 7 -23.5 6t-24.5 -13q-35 -25 -94 -8q-29 8 -36.5 16t-5.5 27q3 23 -12 38q-27 27 -7 47q5 5 2.5 10.5t-15.5 15.5q-21 18 -30 38q-10 19 -20 28q-11 9 -10 24.5t12.5 22t53.5 5.5q31 -2 36.5 0t8.5 17q1 8 2 11.5t5 5.5t9 2.5t16 0.5q31 2 59 13 q31 11 56 8q25 -2 45 10zM441 479q0 13 -5.5 13t-12.5 -12q-9 -13 -25 -13t-20 -10q-3 -8 3.5 -19t13.5 -11q9 0 27.5 21t18.5 31zM300.5 398q7.5 0 12 4t2 8t-14.5 4q-10 0 -13 -4t1.5 -8t12 -4z" />
<glyph unicode="4" horiz-adv-x="515" d="M216 643q28 19 66 10t59 -38q15 -21 23 -23t17 11q1 3 4.5 5.5t6.5 4.5t8 4t9 3l10 2.5t9.5 2t10 1.5t9.5 1q12 3 24.5 -3t20.5 -17.5t11.5 -24t-0.5 -24t-15 -16.5q-15 -6 -16 -30q0 -30 -9.5 -65.5t-17.5 -41.5q-12 -7 -31 4l-19 11l-37 -39q-39 -39 -48 -39 q-17 0 -46.5 -15t-46.5 -32q-19 -20 -36 -23.5t-28 8.5q-8 10 -35 10q-25 0 -40 15q-9 8 -33 30q-12 9 -14 16t1 26q10 60 36 62q16 0 22 1q12 1 -6 13q-14 8 -28 10q-47 9 -47 44q0 39 84 42q18 0 27 1.5t14.5 5t9.5 9.5q11 15 5 17q-23 8 -31 16.5t-8 25.5q0 14 3 18.5 t14 5.5q16 3 26 -7q8 -11 26 -10.5t36 12.5zM417 516q-5 26 -15 27q-8 2 -27 -7.5t-19 -15.5t30 -26q25 -18 31 -13.5t0 35.5zM252 411q0 1 -39 1q-40 -1 -40 -4q0 -5 20 -23l19 -18l20 21q20 21 20 23zM132 339q4 4 -14.5 33t-21.5 29q-5 0 -9.5 -9t-4.5 -17 q0 -5 23.5 -22.5t26.5 -13.5z" />
<glyph unicode="5" horiz-adv-x="415" d="M40 641q34 18 118 -4q46 -13 62 -13t39 13q23 11 38.5 11.5t49.5 -9.5q33 -9 41 -25q8 -18 0.5 -28.5t-37.5 -24.5q-22 -10 -30 -17.5t-13 -21.5q-9 -28 -1 -28q5 1 16 14q14 16 40 21.5t36 -6.5q9 -11 5 -23t-19 -19t-17 -19t9 -21q8 -7 9.5 -29t-6.5 -27q-6 -4 -6 -29 t-11 -37t-39 -20q-40 -10 -58 -8.5t-23 16.5q-4 11 -8.5 13t-15 -1t-16.5 -3q-13 0 -27 -15q-5 -5 -16.5 -10.5t-25 -10t-28.5 -7t-28 -2.5q-8 0 -13.5 3.5t-12 13.5t-18.5 33q-12 22 -17.5 35t-6 21.5t4.5 11.5t15 3q13 0 20.5 -6.5t20.5 -26.5q19 -28 25.5 -32.5t15.5 6.5 q6 6 5 10.5t-8 12.5q-11 12 -20 43q-3 11 -5 17t-5 10t-7 5.5t-11 3.5q-16 3 -24.5 8t-12 14t-3.5 25q0 17 5 26.5t24 28.5q30 28 26 34t-30 21q-23 11 -24.5 25t18.5 24zM259 446q-15 20 -18 13q-1 -6 5 -18q11 -20 16 -20q14 0 -3 25z" />
<glyph unicode="6" horiz-adv-x="513" d="M125 610q12 11 35.5 12.5t82.5 -4.5q48 -6 67 -21q13 -9 19.5 -10t15.5 4q17 9 28.5 4.5t12.5 -19.5q2 -19 18 -26q22 -9 22 1q0 4 -5 10q-9 10 -6 25t14 17t29 -10q17 -11 31 -15q12 -4 15 -16q2 -10 -8.5 -23.5t-21.5 -13.5q-17 0 2 -20q11 -11 7 -40t-19 -52 q-10 -13 -18 -17.5t-25 -5.5q-19 -2 -25 -6t-12 -19q-6 -12 -5.5 -21.5t-1 -15.5t-10.5 -16q-28 -29 -82 -5q-16 6 -23.5 6.5t-20.5 -6.5q-72 -33 -102 -28.5t-45 52.5q-8 24 -25 32q-18 9 -20.5 26.5t11.5 24.5q15 8 12 17.5t-28 36.5q-28 31 -33 48.5t10 29.5q30 24 85 2 q34 -13 32 -3q0 4 -7 11q-27 32 -6 54zM218 539q0 4 -8 5.5t-17 -0.5t-11 -6q-8 -12 7 -12q20 1 28 10zM125 482q-22 16 -27 10q-3 -4 10 -16q18 -16 25 -16q12 0 3 12q-4 6 -11 10zM430 467q0 14 -8 18q-4 1 -6 -3.5t-2 -14.5q0 -13 4 -17t8 1.5t4 15.5zM270 428 q0 13 -16 13q-14 0 -15.5 -4.5t8.5 -18.5q8 -10 15.5 -7t7.5 17zM157 359q-11 17 -17.5 21.5t-6.5 -3.5t7 -27q7 -21 19 -21t12 5q-1 6 -14 25z" />
<glyph unicode="7" horiz-adv-x="343" d="M34 655l17 21l115 -1q2 -1 4 -1q107 -1 123.5 -11t9.5 -69q-1 -1 -1 -2l-7 -54l21 -29q21 -28 16 -46q-4 -17 -49.5 -62t-58.5 -45q-10 0 -12.5 -6t5.5 -11q8 -4 7 -26t-9 -29q-10 -8 -38 -6q-18 2 -23.5 5t-6.5 12q-3 16 4 24q8 9 -5 21t-21 4q-13 -12 -29 -5.5 t-41 34.5q-31 33 -37 51t10 31q13 10 24 10.5t28 -8.5q18 -10 21.5 -8t0.5 20q-4 21 -24 48.5t-40 40.5q-22 14 -26 36q-3 18 0 27.5t22 33.5zM172 630.5q0 6.5 -16.5 6.5t-16.5 -6.5t16.5 -6.5t16.5 6.5zM237 512.5q0 6.5 -6.5 6.5t-6.5 -6.5t6.5 -6.5t6.5 6.5zM276 345 q0 16 6 20t24 2q14 -1 16.5 -5.5t1.5 -24.5q-2 -29 -22 -51.5t-42 -20.5t-23 18.5t20 31.5q19 15 19 30z" />
<glyph unicode="8" horiz-adv-x="385" d="M135 635q19 10 37.5 12t74.5 0q45 -1 61 -2.5t24 -5t18 -12.5q26 -26 25.5 -57.5t-28.5 -62.5q-19 -21 -19 -38.5t19 -35.5q14 -12 15.5 -32.5t-10.5 -37.5q-6 -10 -26 -26t-39.5 -28t-26.5 -12q-11 0 -34 22q-14 15 -21.5 18t-20.5 1q-19 -3 -39 -16q-21 -16 -45 -17.5 t-36 10.5q-11 10 -19.5 34.5t-8.5 42.5q0 14 -13 26q-13 11 -13 43q0 18 2.5 30.5t5.5 18.5t11 20q7 15 -1 28q-7 12 -1 47q4 22 8 28.5t14 8.5q15 2 36 -9q16 -9 22.5 -8.5t27.5 10.5zM322 566q3 17 -11 28q-5 3 -8 0q-3 -2 0 -26q2 -20 9.5 -20.5t9.5 18.5zM301 382 q5 9 1 10t-11 -7q-9 -10 -1.5 -10t11.5 7z" />
<glyph unicode="9" horiz-adv-x="366" d="M118 657q15 5 22 5q9 1 35.5 -14.5t54.5 -37.5q47 -37 58 -19q5 7 29.5 6.5t31.5 -7.5q8 -8 7.5 -22.5t-8.5 -21.5q-9 -8 -28 -6l-19 2l-3 -49q-4 -44 -1 -117q2 -43 0.5 -57t-9.5 -22q-10 -12 -33 -13t-42 9q-15 9 -36 6q-7 -1 -11.5 -1t-10 2t-10.5 6t-13 10 q-22 20 -32 38.5t-15 47.5q-4 26 -10.5 35.5t-20.5 9.5q-33 0 -42 32t15 63q16 21 16 33q0 9 31 42.5t44 39.5zM122 525q0 7 -9 7q-3 0 -7 -2t-7 -5t-5.5 -6t-3 -6t0.5 -5q2 -2 9.5 0.5t14.5 8t7 8.5zM190 449q2 -3 8.5 1t10 10t-0.5 9q-4 2 -9.5 -1.5t-8.5 -9.5t0 -9z M217 378q19 24 -9 29q-14 1 -18.5 -9.5t6.5 -21.5q8 -7 11 -7t10 9z" />
<glyph unicode=":" horiz-adv-x="245" d="M98 632q32 17 57 18t31 -15q5 -14 26 -30q16 -12 19.5 -27.5t-7.5 -24.5q-7 -7 -30 -9q-23 -3 -30 -14q-4 -7 -2.5 -12t11.5 -12q27 -20 37 -28.5t13 -14.5t3 -16q0 -18 7 -35q8 -17 -1 -48t-28 -52q-14 -16 -23 -19t-44 -3q-31 0 -42.5 3t-25.5 14q-13 11 -16.5 19.5 t-3.5 29.5q0 32 13 45t13 17t-26 31q-31 31 -37.5 55.5t10.5 47.5q13 20 17 35q7 19 17 23q11 5 42 22zM120 475q-37 21 -38 13q0 -9 23.5 -28t34.5 -19q30 0 -9 26q-5 4 -11 8zM181 368q7 18 -2 23q-6 4 -12 -11q-4 -13 -18.5 -19.5t-31.5 -3.5q-12 2 -12 -8t25 -12 q38 -3 51 31z" />
<glyph unicode=";" horiz-adv-x="441" d="M154 650q14 5 55 2.5t61.5 -10t30.5 -22.5q6 -10 14 -13t27 -3q30 0 54 -15.5t32 -39.5q7 -19 1.5 -62.5t-17.5 -65.5q-10 -20 -30 -33t-40 -13q-21 0 -29.5 8.5t-8.5 27.5t-11.5 31t-31.5 14q-21 1 -20 -12q0 -13 21 -41q30 -44 22 -77t-47 -26q-23 5 -43 -6 q-18 -10 -51 -12q-15 -2 -22 -0.5t-9 5t-3 13.5q-2 21 6 44q5 17 2.5 25t-16.5 26q-21 25 -56 52q-11 8 -17.5 14t-10.5 11t-5.5 10t-1.5 11q0 19 7 23q6 3 6 28t13 42q10 12 48.5 33t69.5 31zM154 569q-16 15 -22 15q-8 0 -20 -5t-20.5 -11.5t-6.5 -9.5q4 -7 30 -13t58 -8 q37 -2 39 7q0 4 -19 6h-3q-22 3 -36 19zM375 543q-9 8 -23.5 11.5t-16.5 -0.5q-3 -4 -5 -38q-2 -33 11 -54q21 -36 30 -11q5 15 8 46q5 39 -4 46zM139 489q-18 2 -44 8l-16 4l19 -20q18 -20 31 -24t25 7q14 12 11.5 16.5t-26.5 8.5z" />
<glyph unicode="&#x3c;" horiz-adv-x="481" d="M163 569q79 16 115.5 13.5t63.5 -26.5q10 -10 12 -18.5t-1 -34.5q-4 -38 -14 -53q-13 -21 -6 -22q1 -1 2 -1q5 0 20 23q9 15 15.5 19t22.5 4q25 0 32 7t26 5q37 -4 9 -57q-4 -8 -7 -13t-7 -8t-8 -4.5t-9 -1.5q-9 0 -16.5 3t-10.5 5t-8 -0.5t-12 -12.5q-13 -20 -13 -62 q0 -36 -7 -45.5t-36 -13.5q-16 -3 -34 0.5t-57 17.5q-43 16 -55.5 18t-20.5 -4q-14 -13 -28.5 -8.5t-35.5 28.5l-26 31l-8 -19q-9 -19 -23 -21q-19 -3 -24 14.5t-4 79.5l2 78l21 2q13 1 20 -4t21 -27q20 -34 26 -34q5 0 17.5 5t24.5 11.5t14 9.5q3 6 -10.5 17.5t-36 21.5 t-41.5 13q-10 2 -15 4.5t-7 6.5t-3 11q-1 11 2 16t14 9q17 7 25 4q7 -3 79 13zM297 522q-5 5 -22.5 8t-33.5 2t-16 -7t29 -20q21 -11 27 -11.5t14 7.5q6 7 6.5 11t-4.5 10zM140 378q5 8 3 15t-8 7.5t-14 -8.5q-7 -9 2 -16q8 -8 17 2z" />
<glyph unicode="=" horiz-adv-x="391" d="M162 609q6 16 24 13q10 -1 14.5 -5t4.5 -14q2 -12 6 -15.5t15 -3.5q20 0 23 -6q4 -7 32 -7q27 0 36 -8q5 -5 8 -4.5t7 8.5q6 10 21.5 10.5t23.5 -10.5q8 -10 0 -30q-15 -41 -19 -52q-11 -31 -18 -38q-6 -6 -55 -12q-34 -5 -44.5 -10t-27.5 -24q-21 -25 -34.5 -25 t-16.5 25q-2 21 9 33q9 10 4.5 14t-29.5 9q-24 5 -37 -7q-12 -10 -31 -8l-18 2l-2 55q-2 38 0 49t12 19q14 11 46 7q21 -3 27 -1.5t9 9.5q2 6 10 27zM179 515q5 5 -4 12q-6 5 -10 0q-3 -6 3 -11t11 -1zM279 411q8 11 21 9q10 -2 14.5 -8t15.5 -30q8 -18 15 -28 q9 -12 1.5 -23t-24.5 -13q-19 -3 -27.5 6.5t-15.5 40.5q-6 22 -6 31t6 15zM15 403q10 10 35 0.5t45 -30.5q17 -17 33 -18q18 -1 37 -13t21 -24q2 -13 -11.5 -23.5t-30 -10t-22.5 12.5q-7 13 -21.5 13t-34.5 20q-19 20 -37 29q-13 7 -17.5 21.5t3.5 22.5z" />
<glyph unicode="&#x3e;" horiz-adv-x="403" d="M222 595q54 25 77 5q7 -7 14 -7.5t27 4.5q20 6 27 5.5t16 -9.5q13 -12 11 -34q-1 -8 -1.5 -11.5t-1.5 -6.5t-5 -4t-8 -1.5t-13 -0.5q-28 0 -32 -4q-8 -9 -23 -5t-24 16q-22 30 -66 -7q-18 -16 -34 -15t-18 17q-5 31 54 58zM61 570q9 15 29 13q14 -1 18.5 -8t13.5 -36 q9 -34 20 -46.5t32 -12.5q17 0 25 -10q11 -12 20 -8t21 26q14 26 29.5 28t28.5 -20q24 -40 37.5 -73.5t13.5 -53.5t-13 -25q-13 -3 -19 -18q-5 -14 -27 -30.5t-50 -27.5q-25 -9 -77.5 -7t-61.5 14q-7 9 -26 9q-12 0 -15.5 3t-3.5 13q0 17 16 23t16 16t17 20q15 11 10 22 q-2 4 -8.5 30t-14 43.5t-14.5 10.5q-3 -3 -15 -68q-9 -48 -17.5 -63.5t-25.5 -8.5q-22 9 2 130q17 79 39 115zM197 369q4 8 -6 17q-7 7 -9.5 6.5t-7.5 -9.5q-7 -13 -7 -17q0 -3 6.5 -4t14 1.5t9.5 5.5z" />
<glyph unicode="?" horiz-adv-x="352" d="M90 627l34 36l50 -2q81 -2 103 -43q8 -20 6.5 -43t-13.5 -43t-26 -20q-3 0 -6 -0.5t-4.5 -1.5t-0.5 -2q1 -3 27 -56l26 -50l18 10q17 11 28 6.5t11 -21.5q0 -19 -18 -32q-12 -10 -13.5 -15t3.5 -17q8 -16 2 -26t-24 -10q-16 0 -27 25q-6 10 -11.5 16t-10.5 5 q-9 -2 -46 -6q-27 -2 -32 -4.5t-2 -13.5q2 -7 0.5 -13.5t-4.5 -11t-8.5 -7.5t-11.5 -3q-10 0 -28 21.5t-18 33.5q0 5 -3.5 10t-10 7.5t-15.5 2.5q-13 0 -15 14q-3 15 -22 32q-15 15 -17.5 27.5t6.5 29.5q8 14 9 50q3 50 6 63t12 15q12 2 46 37zM100 452q-2 14 -8.5 18 t-15.5 -5q-8 -7 3 -19q12 -13 17.5 -11.5t3.5 17.5zM209 408q7 14 7.5 19t-5.5 12q-6 5 -10 4.5t-11 -8.5q-9 -11 -9 -26.5t9 -18.5q3 -1 8.5 4.5t10.5 13.5zM182 288q4 9 22 7q10 -1 14 -4.5t4 -13.5t-4 -13.5t-14 -4.5q-15 -2 -21 6.5t-1 22.5z" />
<glyph unicode="@" horiz-adv-x="416" d="M10 623q0 24 23.5 35t58.5 11q18 0 27.5 -1.5t17 -5t18.5 -12.5q25 -21 36 -15q9 5 51.5 10t70.5 6q13 0 21.5 -5.5t11.5 -16t0 -25.5q-5 -29 -3 -36t19 -12q41 -15 45 -44.5t-30 -65.5l-17 -19h17q30 0 30.5 -20.5t-28.5 -33.5q-28 -14 -40 -25q-15 -15 -29.5 -11 t-19.5 24q-6 21 -14 23q-15 5 -40 10q-31 7 -50 20q-16 12 -20.5 8.5t5.5 -21.5q8 -16 27 -27.5t37 -11.5q20 0 28 -25t-9 -32q-12 -5 -64 7t-64 22q-19 18 -25 36t0 45q7 34 7 61q0 21 -7 32.5t-42 45.5q-30 29 -39.5 42.5t-9.5 26.5zM124 611q-10 11 -25 12t-22 -8 q-7 -8 15 -26q14 -11 21 -14.5t11 -1t7 11.5q4 13 -7 26zM281 578q0 10 -7.5 11t-18.5 -7q-8 -6 -9 -9.5t5 -9.5q7 -7 18.5 -1.5t11.5 16.5zM356 497q0 2 -6.5 2t-6.5 -7q0 -8 10 1q3 2 3 4z" />
<glyph unicode="A" horiz-adv-x="365" d="M92 560q5 6 19.5 4.5t20.5 -7.5q8 -8 16 0q9 7 59 5t60 -10q11 -9 9 -32q-1 -8 -1 -13t3 -10.5t7.5 -10.5t12.5 -13q25 -23 25 -42q0 -17 -13.5 -36t-27.5 -21q-26 -4 -8 -28q7 -9 10 -9t12 8q11 10 23 9t17 -12q20 -39 19.5 -56.5t-20.5 -20.5q-17 -1 -29 15 q-18 29 -27 6q-5 -15 -18.5 -28.5t-23.5 -13.5q-12 0 -36 17q-22 15 -32.5 15.5t-35.5 -12.5t-73 -12l-47 2l-2 27q-2 17 1 24.5t14 16.5t13 13t-2 9q-9 8 -8 29t10 28q9 8 2 21q-7 15 -4 47q1 23 5 31t22 18q24 16 24 27q0 12 4 15z" />
<glyph unicode="B" horiz-adv-x="377" d="M155 635q14 15 34 -0.5t24 -43.5q3 -17 17 -18q9 -2 11 2t2 20q-1 19 2 22.5t20 4.5q14 1 22.5 -2.5t19.5 -15.5q13 -13 16.5 -22.5t2.5 -28.5q0 -21 -9 -54t-20 -53q-6 -13 -4.5 -15.5t18.5 -5.5q20 -4 39.5 -42.5t17.5 -71.5l-2 -31h-72l-3 -22q-2 -17 -7 -20.5 t-27 -4.5q-19 -1 -27.5 1t-17.5 11q-15 15 -47 15q-35 1 -35 -6q1 -4 7 -10q10 -7 10 -22t-10 -23q-10 -9 -37 0q-7 2 -15 4t-13.5 4t-7.5 2q-8 3 -8 12t-17 20q-14 9 -15 22.5t12 21.5q19 12 11 17q-2 1 -6 1q-9 0 -20 12.5t-11 24.5q0 15 14 25q8 6 11 15.5t4 34.5 q1 26 4.5 35.5t14.5 18.5q16 10 17 25.5t-13 27.5q-11 11 -12.5 25t8.5 27q8 11 41.5 15.5t43.5 -4.5q9 -8 14 -1q4 6 -3 10.5t-6.5 19t7.5 21.5zM241 344q18 7 -5 33q-15 19 -19 7q-4 -10 5.5 -26t18.5 -14zM173 325q0 11 -6 14q-3 2 -5 0t-2 -6q0 -9 7 -13q6 -4 6 5z" />
<glyph unicode="C" horiz-adv-x="410" d="M81 589q14 9 48 21.5t49 12.5q16 0 34.5 -10t28.5 -25q10 -16 17 -16t13 16q12 30 68 4q31 -14 39 -16q11 -5 11 -20q0 -9 3.5 -16t6.5 -14t2 -18q-2 -12 -5.5 -15.5t-17.5 -3.5q-20 0 -38 -14.5t-27 -14.5q-11 0 -12.5 -8t6.5 -19q10 -14 10 -43q0 -13 -1.5 -19.5 t-5.5 -11t-13 -9.5q-11 -6 -14 -11.5t-1 -14.5q3 -9 0 -16.5t-10.5 -12.5t-17.5 -5q-15 0 -23 -18q-10 -18 -30 -20t-32 -15q-12 -14 -29.5 -11.5t-35.5 19.5q-21 20 -56 24q-26 4 -30.5 7.5t-6.5 22.5q-2 25 9 42q11 16 7 39q-4 24 3 32q7 9 -6 26q-27 33 2 52l17 11 l-17 18q-41 42 20 56q19 4 35 14zM310 545.5q0 6.5 -2 6.5q-4 0 -7 -8q-3 -5 2 -5q7 0 7 6.5zM173 492.5q0 6.5 -9.5 6.5t-9.5 -6.5t9.5 -6.5t9.5 6.5zM152 295q3 8 -8 8q-10 0 -10 -10t9 -7q7 3 9 9z" />
<glyph unicode="D" horiz-adv-x="436" d="M97 634q15 7 33 6.5t82 -9.5q31 -5 46 -4t37 8q32 10 44 6q10 -4 10.5 -19.5t-9.5 -24.5q-19 -16 10 -19h10q32 0 43 -23t-4 -60q-6 -27 -2 -28q11 0 21.5 -14.5t8.5 -26.5q-2 -10 -8 -13t-28 -5q-34 -4 -39 -9q-5 -4 4 -26q9 -23 9 -53l1 -33l-26 -2q-25 -2 -33 -9 q-7 -6 -18 -5t-18 10q-10 11 -36.5 5.5t-43.5 -23.5q-15 -15 -32 -17.5t-54 4.5q-15 3 -21 7t-9 14q-4 15 -24 21q-24 5 -30 16t1 33q6 15 5.5 20t-7.5 9q-9 5 -10 20t8 23q21 21 44 -12q15 -19 27 -19q13 0 12 5t-14 11q-20 9 -16.5 29t24.5 20q14 0 17 8t-7 14 q-36 21 -47 53q-7 22 7 27q9 4 6 23q-10 46 26 62zM242 538q4 0 6.5 3.5t1 7t-7.5 3.5q-5 0 -7 -2.5t-1.5 -5t3 -4.5t5.5 -2zM180 354q0 6 -10 11q-3 1 -5 1.5t-3.5 0.5t-1.5 -1q0 -2 10 -10t10 -2z" />
<glyph unicode="E" horiz-adv-x="391" d="M72 631q3 4 42 4q27 0 35.5 -3t17.5 -16q9 -12 17.5 -15.5t34.5 -3.5q24 0 32.5 2.5t12.5 10.5q8 15 23.5 13t27.5 -19q15 -20 33 -20t26 -8.5t8 -28.5q0 -9 -1.5 -14t-5 -8t-9.5 -6q-10 -4 -13.5 -9.5t-3.5 -20t3.5 -20t13.5 -9.5q16 -7 16 -22q0 -14 -11.5 -22 t-30.5 -8q-17 0 -16 -5q0 -6 19 -13q9 -3 15 -10.5t8 -14.5t5 -20t4 -20q7 -18 7 -31q0 -17 -38 -46.5t-60 -29.5q-12 0 -56 15q-43 13 -51 29q-2 5 -4.5 7.5t-6.5 4.5t-10.5 2.5t-16.5 0.5q-26 0 -42 6t-35 24q-17 15 -29 17q-14 3 -20 14.5t0 22.5q6 9 23 10t38 -6 q16 -5 15 3q-1 14 -38 38q-24 16 -29.5 23.5t-4.5 20.5q2 14 6 17t20 3q28 0 41 16q4 8 1 13q-7 6 -30 11q-15 4 -19 8.5t-4 17.5q0 9 2 12.5t6.5 5.5t16.5 3q22 2 27.5 11t-5.5 22q-8 9 -10.5 22.5t3.5 18.5zM250 478q8 -7 11 3q2 8 -2 13q-8 8 -11 -3q-3 -7 2 -13z M158 408q-2 9 -11 12q-4 1 -5.5 -0.5t-0.5 -5.5q3 -9 12 -11q4 -2 5.5 0t-0.5 5zM141 341q0 5 -8 7q-6 1 -5 -3v-2q3 -10 10 -7q3 1 3 5zM287 284q-2 4 -11 5.5t-17 0t-8 -5.5q0 -6 13.5 -10t19.5 0q7 4 3 10z" />
<glyph unicode="F" horiz-adv-x="404" d="M216 625q6 9 23 3.5t24 -18.5q6 -11 14.5 -13.5t43.5 -2.5q37 0 44.5 -2t8.5 -13q3 -15 -9 -28q-7 -8 -7.5 -13.5t5.5 -17.5q15 -37 -4 -50q-16 -11 -36 16q-26 35 -26 6q0 -14 -13.5 -29t-9.5 -27q2 -4 3 -5.5t3 -1t4.5 3.5l7.5 9q16 22 33.5 17t17.5 -32q0 -16 27 -41 q18 -17 21.5 -26t2.5 -33q-1 -13 -1.5 -18.5t-3 -10t-6 -5t-11.5 -0.5q-12 0 -16 3.5t-5 17.5q-3 21 -17 34l-15 15l-13 -19q-27 -40 -24 -50.5t41 -17.5q29 -4 41 -11.5t12 -20.5q0 -16 -13 -20.5t-41 0.5q-67 12 -75 32q-3 10 -14 24q-11 11 -11 35q0 28 -11.5 27 t-24.5 -32q-17 -37 -30.5 -45.5t-52.5 -4.5q-44 5 -52.5 12t-8 18.5t9.5 19.5q11 9 8.5 16t-24.5 32q-22 24 -25.5 40.5t12.5 20.5q13 3 13 24.5t14 38.5l13 18l-13 15q-21 23 -8 50q5 8 13.5 10.5t28.5 2.5q18 0 25.5 1.5t13 6t14.5 15.5q13 17 20 20t27 1q29 -3 32 3z M224 520q-3 10 -13 11q-4 -1 -5 -4q0 -7 10 -11q5 -2 7 -0.5t1 4.5zM161 484q0 6 -9 8q-5 1 -5 -3q1 -1 1 -2q3 -10 10 -7z" />
<glyph unicode="G" horiz-adv-x="365" d="M31 596q7 7 18 7t19 -7q8 -8 71 -7q62 1 78 -5t28 2q13 8 35 0q21 -8 41 -4q18 3 27.5 -6t6.5 -29q-1 -9 -3.5 -12.5t-8 -5t-21.5 -2.5q-33 -2 -31 -10q1 -4 15 -6q7 -1 9.5 -3.5t3.5 -9t1 -20.5q0 -30 9 -38q24 -25 -18 -55q-40 -27 -20 -39q11 -7 6 -23.5t-20 -26.5 q-15 -8 -27 -9.5t-43 0.5q-30 3 -41 1.5t-19 -8.5q-14 -12 -28.5 -8t-16.5 21q-4 20 -18 22q-6 1 -18.5 11.5t-24.5 24t-21.5 27t-9.5 18.5q0 9 8.5 17t18.5 8q14 0 16.5 8.5t-9.5 16.5q-15 10 -14.5 25.5t16.5 22.5t15.5 16.5t-18.5 30.5q-32 36 -12 55zM167 526q0 6 -20 6 q-16 0 -18 -4t10 -13q9 -6 18.5 -2.5t9.5 13.5zM128 427q0 7 -7 10q-6 4 -6 -2.5t6 -10.5q7 -3 7 3z" />
<glyph unicode="H" horiz-adv-x="463" d="M138 621q35 10 86 5.5t78 -19.5q29 -16 36 -16q6 0 19 -11q8 -8 11 -7.5t9 7.5q8 11 27 9.5t26 -13.5q7 -11 -1 -25q-10 -14 -7 -14q28 -14 30 -27q3 -11 -5.5 -20.5t-19.5 -9.5q-12 0 -22 -19q-11 -19 -20 -22q-11 -5 -9.5 -15.5t15.5 -18.5q10 -7 15.5 -7.5t12.5 4.5 q22 13 32 -7q10 -23 -11 -43q-8 -8 -15 -8.5t-23 3.5q-7 2 -19.5 5.5t-13.5 3.5q-6 2 -9.5 -5t-3 -18t5.5 -20q15 -27 -5.5 -39t-44.5 10q-12 12 -14.5 10t-10.5 -27q-2 -7 -8 -8t-23 1q-27 4 -39 -7q-8 -7 -14 -7.5t-19 4.5q-22 9 -38 12q-19 5 -25 13.5t-5 31.5 q1 38 -11 35q-2 -1 -6 -5q-9 -8 -23 -7t-24 12q-11 12 -26 15q-14 2 -16 23q-3 31 15.5 39t39.5 -14q15 -16 20.5 -15.5t13.5 16.5q5 11 4 16.5t-9 14.5q-18 19 -10.5 37.5t38.5 30.5q16 7 15.5 15t-18.5 11q-12 2 -18.5 6.5t-10 12.5t-3.5 21q0 22 9.5 31.5t41.5 18.5z M267 323q-5 9 -43 3t-38 -16q0 -8 12 -9.5t20 6.5q11 9 32 9q18 2 17 7z" />
<glyph unicode="I" horiz-adv-x="271" d="M32 620q5 3 106 2l102 -2v-16q0 -6 -1 -9t-5.5 -5.5t-11 -3t-21.5 -2.5l-40 -3l-2 -24q-2 -25 5 -25t7 9q0 13 9 12.5t36 -12.5q25 -13 31.5 -25t-3.5 -28q-4 -6 -8.5 -6t-17.5 7q-14 7 -18.5 6.5t-12 -13t-5.5 -18.5t22 -27q19 -21 22.5 -29.5t0.5 -26.5 q-3 -17 -1.5 -21t9.5 -4q14 0 22 -11q15 -19 -16 -24t-104 -5q-69 0 -87 2t-20 10q-3 8 -11 26q-7 14 -1 26t19 12t17 15q6 16 17 18t24 -10q23 -21 23 -5v6q-2 15 -21 17q-17 2 -35 28q-7 10 -15.5 17.5t-12.5 7.5q-14 0 -20.5 11.5t-0.5 24.5q8 17 14 17t20 19l14 20 l-17 6q-12 5 -16 16.5t4 19.5zM179 416q-14 13 -17.5 9t-3.5 -30q0 -41 14 -38q5 2 10 8q9 13 8 27.5t-11 23.5zM116 361q5 10 -8 10q-15 1 -15 -10q0 -5 9.5 -5t13.5 5z" />
<glyph unicode="J" horiz-adv-x="243" d="M90 581q2 6 15.5 8t58.5 1l70 -2v-116q0 -79 -2 -100t-11 -33q-31 -42 -78.5 -48.5t-83.5 25.5q-22 20 -33 20q-10 0 -14.5 10t2.5 18q7 7 9 28q2 20 15.5 21t32.5 -18l19 -20l18 20q18 20 32 17q12 -3 20 6q7 9 23 9q14 0 14 5q1 5 -21 26q-23 20 -23 37t-9 17 q-8 -1 -19 -19q-10 -17 -23 -19t-21 13q-8 13 5 34q12 21 6 35q-6 15 -2 25zM198 375q0 10 -8 5q-5 -2 -7 -8q-8 -20 -36 -2q-8 5 -13.5 2.5t-16.5 -14.5q-17 -19 -17 -23q0 -6 30 -6q19 0 28.5 4t20.5 15q19 19 19 27zM28 470q18 20 36 -5q9 -12 5 -17.5t-24 -8.5 q-16 -1 -21.5 8.5t4.5 22.5z" />
<glyph unicode="K" horiz-adv-x="449" d="M229 608q30 24 47 8q7 -9 31 -9q16 0 23.5 -3.5t9.5 -17.5t-2 -36t-14 -63q-2 -8 -0.5 -11t6.5 -1q9 3 12 25q1 5 2 9t2.5 6.5t3.5 4.5t4.5 3t5.5 1q15 2 27 -6q9 -8 29 -17q24 -11 16.5 -29t-35.5 -18q-13 0 -18.5 -4t-9.5 -17q-5 -14 -10 -16.5t-23 -0.5q-25 3 -26 -2 q-1 -3 7 -11q9 -9 2.5 -19t-19.5 -8q-17 4 -17 -2q0 -11 19 -37.5t28 -26.5q4 0 11 28q7 29 21.5 46t31.5 17q32 0 43 -24q10 -22 -12 -32q-4 -2 -10 -3q-15 -1 -20 -6.5t-10 -25.5q-14 -56 -32.5 -67t-56.5 14q-29 19 -37 12t-8 -13q0 -19 -23.5 -27.5t-35.5 5.5 q-7 9 -28 12q-19 2 -27 13t1 24q4 7 4.5 10.5t-3.5 6t-12.5 3t-24.5 0.5q-25 0 -34 4t-24 20q-18 18 -22 41t8 31q8 4 22 31q12 26 35 33q22 8 25 15.5t-5 7.5q-6 0 -10 -6q-9 -10 -24 -4.5t-32 25.5t-25 43q-6 16 -6 23.5t5 13.5q10 11 23.5 7.5t21.5 -18.5q8 -18 13 -18 q6 0 22.5 15.5t19.5 24.5t30 18q17 6 24.5 5t21.5 -8q15 -9 20 -9t18 10zM223 441q-2 9 -11 11q-4 2 -5.5 0t-0.5 -6q3 -8 11 -11q4 -1 6 0.5t0 5.5z" />
<glyph unicode="L" horiz-adv-x="417" d="M207 648q7 8 18.5 8t17.5 -8q7 -8 7 -54q-1 -55 2 -72t15 -32l15 -19l11 22q8 15 8 20t-10 15q-24 24 -6 42q8 8 19.5 7.5t18.5 -9.5t38 -14q31 -4 39 -12.5t8 -34.5q0 -47 -27 -47q-5 0 -12 -7t-11 -17q-14 -25 -31 -27q-12 -2 -14.5 -5.5t0.5 -13.5t3 -15q0 -13 15 -19 q12 -4 23 -33t5 -39q-7 -10 -23 -6t-27 19q-22 29 -23 15q0 -4 2 -12q4 -17 -4 -26t-35.5 -9t-43.5 9q-9 5 -21.5 10.5t-24.5 11t-21 11.5q-20 9 -45 9q-13 0 -25 5t-20.5 13.5t-13.5 20t-5 23.5q0 14 3.5 20.5t12.5 10t30 5.5q57 7 3 32q-6 3 -13 6q-38 15 -47 23t-8 24 q2 11 7.5 14t30.5 5q33 2 43 9t10 29q0 13 -3.5 17.5t-14.5 5.5t-15 5t-5 15q-3 20 15.5 29t66.5 11q54 2 62 9z" />
<glyph unicode="M" horiz-adv-x="431" d="M138 625q23 14 39 9.5t16 -25.5q0 -10 3.5 -11t16.5 7q12 8 28 0q16 -9 44 -5q17 3 39.5 -3t39.5 0q15 6 22 6t13 -6q10 -8 9 -18.5t-14 -27.5q-9 -13 -16.5 -16t-24.5 -2q-7 1 -12.5 0.5t-9 -1.5t-3.5 -2q4 -11 13.5 -17.5t31.5 -11.5q28 -8 38.5 -15t10.5 -19t-9 -19 t-24 -7q-12 0 -15.5 -3.5t-5.5 -14.5q-1 -12 -5 -15.5t-18 -4.5q-16 -2 -18.5 -6.5t-1.5 -29.5q1 -35 11 -45q8 -12 6 -27q-2 -14 -22 -16.5t-42 8.5q-15 7 -20.5 6.5t-19.5 -13.5q-10 -8 -19.5 -11t-15 -2.5t-19.5 4t-22 4.5q-14 3 -17.5 0t-5 -18t-5.5 -19t-21 -5 q-24 -2 -37.5 11t-13.5 38q0 12 4.5 23t11.5 17.5t14 6.5q20 0 8 15q-7 8 -18 15q-16 11 -21 18t-4 17t6 14t18 6q27 4 25 13q-1 7 -19 8q-13 1 -18 5t-7 15q-2 18 -26 31q-22 11 -25.5 28t15.5 25q17 6 17 22q0 13 11 21.5t30 8.5q17 0 25 11q7 8 29 23zM262 544 q-3 5 -10 6.5t-13.5 0.5t-6.5 -5q0 -6 13.5 -11t17.5 -1q3 3 -1 10zM194 491q8 8 0 11q-7 2 -11 -3q-5 -8 -0.5 -11.5t11.5 3.5z" />
<glyph unicode="N" horiz-adv-x="442" d="M102 629q6 8 18 7t20 -10q14 -17 38.5 -21.5t97.5 -3.5q86 1 113 6q16 4 27 -2.5t11 -20.5q0 -24 -44 -30q-21 -3 -44 -12.5t-23 -15.5q0 -7 10 -13t23 -8q15 -2 19 -17.5t-9 -24.5q-7 -5 -6 -10.5t12 -21.5q25 -38 12 -79q-9 -33 -33 -27q-5 1 -10 4q-12 8 -16 4 q-5 -5 2 -15t20 -16q19 -9 19 -24q0 -17 -12.5 -23t-32.5 1q-24 8 -46 5q-21 -5 -30 6q-9 10 -31 10q-23 0 -49 13q-27 13 -36 13q-6 0 -14.5 5t-15.5 11.5t-12.5 14t-5.5 13.5q0 14 -13 22q-13 7 -13 29q0 23 -8 23q-5 0 -11 4t-10 9.5t-7 12t-2 11.5q3 15 15.5 19t29.5 -5 q19 -11 22.5 -5.5t-9.5 13.5q-16 9 -12.5 25.5t22.5 19.5q14 3 16.5 9.5t2.5 40.5q0 45 5 54zM277 479.5q0 6.5 -6.5 6.5t-6.5 -6.5t6.5 -6.5t6.5 6.5zM153 388.5q0 6.5 -6.5 6.5t-6.5 -6.5t6.5 -6.5t6.5 6.5zM389 497q7 9 18.5 9t19.5 -9q8 -10 5 -41q-1 -23 -4 -27.5 t-17 -4.5t-17.5 4.5t-7.5 27.5q-5 32 3 41z" />
<glyph unicode="O" horiz-adv-x="443" d="M196 621q19 9 59 7q14 0 22 -1t15 -4t12 -6.5t12 -11.5q18 -17 29 -19.5t35 6.5q14 6 20.5 4.5t17.5 -12.5q16 -14 16.5 -32.5t-14.5 -28.5q-9 -7 -11.5 -14.5t-0.5 -24.5q1 -21 -2 -27t-17 -13q-20 -10 -20 -25t-7.5 -23t3.5 -20q17 -19 8.5 -39.5t-34.5 -20.5 q-23 0 -45 -16.5t-24 -34.5q-1 -11 -5 -14t-17 -3q-19 0 -27 16q-5 10 -11.5 12.5t-22.5 1.5q-18 -1 -23.5 1.5t-10.5 13.5q-6 17 -25 17t-33 18q-15 18 -35 21q-10 1 -14 3.5t-5.5 6.5t-1.5 13q0 14 5 17t31 6q36 3 35 8q-2 4 -2 23q0 18 -9 30q-6 9 -10.5 9t-22.5 -8 q-35 -17 -50.5 -2.5t7.5 43.5q9 11 18.5 15t32.5 6q43 4 40 19q-1 7 -17 15q-20 9 -21.5 26.5t15.5 28.5q17 10 51 8q34 -3 54 5zM212 473.5q0 6.5 -2 6.5q-4 0 -7 -8q-3 -5 2 -5q7 0 7 6.5zM336 388.5q0 6.5 -6.5 6.5t-6.5 -6.5t6.5 -6.5t6.5 6.5z" />
<glyph unicode="P" horiz-adv-x="439" d="M166 647q5 7 17 8.5t44 -1.5q98 -6 144 -50q20 -19 36 -21q10 -1 13.5 -5.5t3.5 -16.5q0 -13 -4 -16.5t-21 -4.5q-21 -2 -23.5 -7t12.5 -17q13 -12 13 -27t15 -17q4 -1 6.5 -2t4.5 -3.5t2.5 -6.5t0.5 -10q0 -13 -3.5 -16.5t-17.5 -4.5q-22 -2 -25.5 -13t10.5 -35 q29 -52 -13 -58q-7 -1 -10.5 -2t-6.5 -2.5t-4.5 -5.5t-2 -8.5t-1.5 -14.5q-2 -29 -12 -40t-33.5 -11.5t-50.5 9.5q-23 8 -47 10q-12 0 -19 4.5t-16 18.5q-10 16 -15.5 19t-22.5 0q-26 -5 -69 -5l-46 -2v20q0 14 4 17t25 6q29 3 32 13q1 4 -5 6l-9 1q-36 0 -29 46q4 26 -7 37 q-10 10 -20 37.5t-1 39.5q10 12 26 9t25 -19q11 -19 17.5 -16.5t6.5 26.5q0 11 -1 16.5t-4.5 8t-10.5 4.5q-28 6 -17 49q4 16 27 29.5t47 13.5q27 0 35 10zM257 492.5q0 6.5 -6.5 6.5t-6.5 -6.5t6.5 -6.5t6.5 6.5zM331 407q6 14 -5 14q-10 0 -14 -10.5t3 -17.5q6 -6 9 -4 t7 18zM270 363q0 6 -18 6q-12 0 -13 -1.5t6 -9.5q8 -8 16.5 -6.5t8.5 11.5zM303 307q0 3 -6.5 3t-6.5 -7q0 -9 10 0q3 3 3 4z" />
<glyph unicode="Q" horiz-adv-x="427" d="M157 637q4 6 15.5 6t19.5 -8t42 -9q32 0 68.5 -12.5t39.5 -23.5q2 -11 7 -11.5t19 9.5q15 10 33 8q11 -1 14 -5t3 -16.5t-4.5 -18t-19.5 -13.5q-8 -4 -12.5 -7t-7.5 -7t-4 -8t-1 -11q0 -19 -9 -30q-7 -8 -7 -11t7 -9q9 -8 9 -23.5t-11 -21.5t-11 -41q0 -25 -2.5 -30 t-15.5 -7q-9 -1 -12 -3t-4.5 -10.5t0.5 -25.5v-19.5t-1.5 -11.5t-4 -5.5t-6.5 -2.5q-14 -3 -30 -16t-22 -27q-8 -15 -29 -16.5t-40 12.5q-30 21 -13 53q7 12 -4 17q-12 4 -25 -13t-34.5 -18t-38 13.5t-16.5 35.5q0 22 -20 36q-19 14 -18 32q1 10 5 13.5t14 2.5q14 0 31 -5 q9 -3 11.5 -1t2.5 13q0 17 -23 34q-35 26 -15 47q8 7 -9 30q-18 22 -18 35q0 23 45 58t74 35q24 0 28 7zM198 528q8 9 -16 17q-22 8 -22 0q0 -4 17.5 -12t20.5 -5zM167 454q0 6 -5.5 6t-9.5 -4q-11 -11 0 -12q13 1 15 10zM304 354q0 5 -10 19q-9 12 -9 2q-1 -5 3 -16 q5 -12 13 -10q3 1 3 5zM278 296q0 2 -3 4t-8 3.5t-11 3t-11.5 2.5t-10.5 2.5t-6 1.5q-14 5 -15 -2t12 -14q8 -4 20.5 -5.5t22.5 -0.5t10 5z" />
<glyph unicode="R" horiz-adv-x="339" d="M92 604q11 0 23.5 10t20.5 11q36 7 57 -5q14 -8 32.5 -9t23.5 6q4 7 29.5 6t37.5 -10q14 -10 14 -21.5t-9.5 -20t-19.5 -4.5t-16 -13q-12 -27 14 -73q24 -43 -5 -54q-10 -4 -11.5 -8t-1.5 -12t-6 -15q-10 -17 -8 -20t23 -5q11 -1 16 -2.5t7 -5t3 -11.5q1 -10 -3.5 -16.5 t-18.5 -14.5q-25 -14 -42 -14q-20 0 -48 -19q-26 -18 -37 -19t-23 12t-33 13q-8 0 -15.5 2.5t-13 7.5t-9.5 11.5t-5 13.5q-3 14 -22 19q-27 7 -34.5 29.5t12.5 36.5q10 8 10.5 11t-6.5 12q-12 13 -10.5 33.5t15.5 38.5q15 17 15.5 24.5t-12.5 18.5q-14 14 -11 27t21 15 q19 2 25 8q8 6 21 6zM131 467q-5 6 -10 6q-7 0 -9.5 -6.5t3.5 -9.5q4 -2 8.5 -1.5t7 4.5t0.5 7zM141 345q0 11 -7 14q-2 1 -4 -0.5t-2 -5.5q0 -10 6 -14q7 -3 7 6z" />
<glyph unicode="S" horiz-adv-x="369" d="M229 632q5 6 16.5 4t17.5 -9q9 -10 25 -10q28 0 38 -20t-11 -35q-14 -9 -10 -20q3 -7 5.5 -7.5t8.5 4.5q11 9 25.5 4.5t15.5 -17.5q2 -15 -5 -22t-7 -28q0 -20 -10 -29q-8 -7 -9 -29t6 -26q7 -5 6.5 -19.5t-7.5 -22.5q-8 -8 -25 -8q-18 0 -42 -9q-17 -6 -21.5 -11 t-4.5 -19q0 -15 -3.5 -19t-14.5 -6q-17 -1 -31 17q-14 20 -37 25t-38 -10q-13 -11 -27 -12.5t-23 8.5q-7 9 -21 12q-15 2 -28 26t-6 36q7 11 25 13q17 3 17 11t16.5 23.5t15.5 21t-21 5.5q-19 0 -29 8t-7 22q3 16 34 24q9 3 9 5.5t-7 10.5q-24 28 8 52q19 14 22 32l2 19h64 q63 2 68 5zM212 511q8 7 4 11t-9 -3q-3 -4 -3 -9q0 -7 8 1zM245 407q8 7 0 15q-7 8 -12 -4q-4 -10 0.5 -14.5t11.5 3.5zM172 393q8 8 0 11q-7 3 -10 -3q-5 -8 -0.5 -11.5t10.5 3.5z" />
<glyph unicode="T" horiz-adv-x="416" d="M227 610q7 28 71 -3q34 -15 57 -17q15 -2 22 -7.5t16 -24.5q17 -34 12 -49t-41 -33q-32 -14 -38 -22.5t7 -19.5q10 -8 25 -1q15 9 31 6q12 -1 15.5 -8.5t-2.5 -19.5t-20 -28q-22 -24 -24.5 -30.5t6.5 -15.5q5 -5 3.5 -9t-9.5 -11q-14 -11 -11 -29q3 -14 -6.5 -27.5 t-21 -16t-19.5 6.5q-3 7 -20 7q-16 0 -20 9q-4 10 -12.5 10t-16.5 -10q-7 -9 -44 -9.5t-46 7.5q-8 8 -8 25q0 9 -5 15.5t-20 14.5q-17 9 -20 15.5t-2 29.5q1 32 7.5 38.5t6.5 12.5q-1 13 -32 -9q-19 -14 -37.5 -11.5t-20.5 20t11 24.5q12 7 10 19q-3 12 16.5 38.5t34.5 31.5 q6 2 12 11t12 17t13 8q14 0 20 12q5 9 24 15t43 6q18 0 21 12zM311 344q-11 12 -16 12q-3 0 -7.5 -10.5t-2.5 -12.5t9.5 -6t15 -7.5t9.5 -3.5q9 0 1 17z" />
<glyph unicode="U" horiz-adv-x="411" d="M32 633q15 10 65 10q39 0 58.5 -7t64.5 -36q25 -17 33.5 -16.5t11.5 17.5q4 18 18.5 20.5t43.5 -10.5q29 -14 38 -14q11 0 21.5 -13.5t8.5 -26.5q-2 -10 -8.5 -13.5t-31.5 -5.5q-30 -3 -43 -11t-5 -18t35 -18q19 -6 25.5 -10.5t7.5 -15.5q3 -17 15 -28q17 -15 11.5 -48 t-24.5 -38q-13 -3 -15 -24q-1 -15 -5 -17.5t-23 -2.5q-25 1 -31 -8q-5 -7 -68 -8q-30 0 -44 -1.5t-23 -5t-21 -11.5q-38 -26 -54 -1q-7 12 1 25q11 17 4 18q-5 1 -13 -10q-9 -13 -19 -14t-29 9q-18 9 -20 24t13 28q13 12 12.5 22.5t-15.5 28.5q-13 15 -16.5 43t6.5 38 q7 6 13 48q5 43 -4 48q-11 6 -9 25t15 28zM79 437q12 4 5 12q-10 9 -18 -3q-5 -7 -0.5 -10t13.5 1zM349 420q3 32 -24 15q-6 -4 -6.5 -8.5t4.5 -15.5q8 -16 16 -13.5t10 22.5zM207 375.5q0 6.5 -6 6.5q-7 0 -11 -8q1 -4 6 -5q11 0 11 6.5z" />
<glyph unicode="V" horiz-adv-x="375" d="M171 603q17 26 47 0q15 -15 49 -15q24 0 29 -3t5 -16q0 -9 2.5 -14t9 -10.5t20.5 -12.5q21 -11 27 -17.5t6 -19.5q0 -11 -3 -15.5t-12 -4.5q-16 -3 -31 8q-16 10 -26 7t-10 -17q0 -13 13 -13t18 -10q4 -11 19 -17q13 -5 15.5 -20t-9.5 -25q-9 -7 -11 -21q-2 -15 -20 -17 t-18 -8t-14.5 -20.5t-14.5 -29.5q0 -17 -11.5 -23.5t-26.5 1.5q-4 2 -19 10t-22 12q-37 20 -85 11q-8 -2 -11 2t-4 18q-2 23 -11 33q-9 8 -11 48q-2 26 -5.5 34t-16.5 16q-10 5 -17.5 15t-10 20t0.5 19t33 14q30 4 30 11q0 6 -6 6q-7 0 -18 9t-19.5 20.5t-7.5 18.5 q2 9 7 11.5t23 2.5q27 0 32 5q12 12 51 -7q17 -8 21.5 -7.5t12.5 11.5zM163 507q5 7 -6 17q-7 8 -8.5 7.5t-1.5 -10.5q0 -19 10 -19q3 0 6 5z" />
<glyph unicode="W" horiz-adv-x="455" d="M168 631q11 10 105 -4q57 -9 69 -2q11 8 38 -1q27 -8 44 -32.5t14 -52.5q-1 -24 -12.5 -34.5t-23 -2.5t-14.5 31q-3 33 -17 38q-7 2 -9 -9q-1 -4 -1 -10q0 -19 6 -23q7 -4 7 -20t36 -47t36 -42q0 -13 -11.5 -19.5t-28.5 -3.5q-20 4 -37 -9t-47 -12q-9 1 -14.5 1t-9.5 -1 t-5.5 -3.5t-2.5 -5.5q-2 -12 22 -22q15 -6 19 -11t3 -16q-2 -17 -18.5 -20t-39.5 9q-14 7 -17.5 7t-6.5 -9q-12 -39 -41 -34t-81 54q-36 37 -43 37q-4 0 -33 20q-18 13 -22.5 20t-2.5 21q1 15 5.5 18t21.5 3q23 0 23 8q0 9 -25 17q-25 9 -36.5 34t-5.5 60q4 25 7.5 31.5 t13.5 8.5q12 2 20 -2t11 -13.5t1 -24.5q-4 -24 0 -24q8 0 18 9t10 16q0 12 9 20q9 7 12 22q1 8 6.5 11.5t18.5 4.5q22 3 29 9zM175 506q-4 6 -11 6q-6 0 -2 -6q4 -7 10.5 -7t2.5 7z" />
<glyph unicode="X" horiz-adv-x="428" d="M216 624q14 8 28.5 4t15.5 -15q2 -14 15 -17t23 9q11 12 28 12q10 0 12 -3t-1 -13q-2 -12 3 -14.5t34 -3.5q34 -1 42 -10t-5 -32q-8 -16 0 -32q10 -21 6.5 -43t-21.5 -54q-23 -40 -23 -62q0 -13 -3.5 -18.5t-14.5 -9.5q-17 -6 -39 -4q-22 4 -28 -4q-6 -7 -62.5 -9 t-65.5 5q-3 2 -11.5 4.5t-14.5 6.5t-6 12q0 12 -43 34q-27 15 -34.5 22t-7.5 18q0 12 4 14.5t22 2.5q28 -2 39 -4q13 -3 13 7t-39 14q-27 2 -33.5 5t-7.5 13q-3 18 6 23q8 8 9 42q1 35 12.5 51.5t34.5 14.5q16 -2 20.5 0t4.5 11q0 11 14 14.5t25 -5.5q6 -5 13.5 -3t35.5 17z M130 515q3 5 -10 13q-15 9 -15 -3q0 -6 10 -10t15 0zM326 480q7 0 11 7q-1 5 -6 6q-11 0 -11 -6.5t6 -6.5zM320 381.5q0 6.5 -6.5 6.5t-6.5 -6.5t6.5 -6.5t6.5 6.5zM49 324q8 6 23.5 3.5t21.5 -11.5q7 -12 -5 -28q-7 -12 -14.5 -15t-30.5 -1q-25 1 -29.5 4t-4.5 17 q0 12 3.5 16.5t12.5 5.5q16 2 23 9z" />
<glyph unicode="Y" horiz-adv-x="423" d="M84 627q2 8 39 8q23 0 31 -2t12 -11q6 -9 16 -10.5t54 0.5q63 5 69 15q6 11 19 9.5t17 -13.5q5 -14 21 -21q13 -6 17.5 -21t-3.5 -25q-6 -8 -10 -27q-3 -13 1 -19.5t21 -19.5q21 -15 25.5 -30t-8.5 -25q-17 -14 -54 21q-19 16 -19 8t19 -30q12 -13 16.5 -20.5t6 -16.5 t1.5 -28q0 -36 -11.5 -62t-31.5 -35q-13 -6 -52 -7t-75 4q-14 2 -20 4.5t-8.5 6.5t-4.5 13q-2 14 -7.5 17.5t-25.5 5.5q-30 4 -41 13q-12 10 -10.5 28t16.5 27q36 24 -13 24q-30 0 -43 13t-12 25t17 29q14 15 11 22t-30 21q-8 4 -13 8t-7.5 9.5t-3.5 14.5q-1 17 9.5 26 t38.5 15q19 4 21 16q3 15 5 20zM202 556q-5 -11 0 -16t8 3q2 5 0 13q-2 9 -3 9t-5 -9zM127 526q-9 15 -17 12q-3 -2 -3 -5q0 -11 5.5 -19t11.5 -8q8 0 8.5 3.5t-5.5 16.5zM186 465q0 5 -8 7q-5 1 -5 -2q0 -1 1 -3q3 -10 9 -7zM299 377q2 -3 8.5 1.5t10 10t-0.5 8.5 q-3 3 -9 -1t-9 -10t0 -9z" />
<glyph unicode="Z" horiz-adv-x="463" d="M320 636q11 12 29.5 13t25.5 -10q7 -12 34 -19q29 -6 38 -23q7 -12 6.5 -19.5t-8.5 -25.5q-9 -19 -9.5 -24.5t7.5 -9.5q26 -14 -11 -123q-37 -107 -86 -113q-19 -2 -21 -15q-8 -39 -49 -34q-25 4 -37 14q-12 11 -21 7q-12 -5 -19 7.5t-3 32.5q4 21 -2 21h-2 q-8 -3 -11 -23q-2 -20 -20.5 -31t-44.5 -9q-9 1 -13.5 2t-7 3.5t-3 6t-0.5 10.5q0 20 13 21q16 3 18.5 11.5t-5.5 32.5q-11 31 -6 37q2 3 -0.5 14t-7.5 21t-8 10q-4 0 -17 -10q-22 -17 -45.5 -4t-23.5 42q0 34 44 56q10 5 12 10.5t0 16.5q-6 25 7.5 37t65.5 26q7 1 10 17 q1 11 11.5 12.5t68.5 -0.5q55 -1 68.5 0.5t22.5 11.5zM383 549q15 13 6 19q-7 4 -21 -4q-13 -7 -4 -16q5 -7 8 -6.5t11 7.5zM245 486q14 0 17 8q-7 4 -13 5q-17 0 -17 -6.5t13 -6.5zM269 304q-6 -8 -1 -12q6 -5 9 2q1 4 0 10q-2 5 -3.5 5t-4.5 -5z" />
<glyph unicode="[" d="M10 -69.5q0 6.5 500 6.5t500 -6.5t-500 -6.5t-500 6.5z" />
<glyph unicode="]" d="M10 -69.5q0 6.5 500 6.5t500 -6.5t-500 -6.5t-500 6.5z" />
<glyph unicode="a" horiz-adv-x="401" d="M301 603q21 7 30.5 6.5t19.5 -10.5q12 -10 27 -17q9 -5 11.5 -13.5t2.5 -36.5q0 -38 -9.5 -44t-40.5 15q-26 17 -29 13q-8 -7 2 -38.5t25 -50.5q17 -19 24.5 -43t3.5 -38q-4 -9 -23 -11q-10 -1 -15 -6t-8 -16q-11 -35 -25 -40.5t-43 13.5q-41 27 -41 5q0 -29 -51 -26 l-31 2l-21 45q-21 44 -34 44q-11 0 -36 9q-16 7 -20 12.5t-2 19.5q1 12 4.5 17t12.5 6q11 1 13.5 6.5t-5.5 10.5q-7 5 -20 32t-13 38q0 20 12 30.5t46 20.5q46 13 112 13q41 0 57 2.5t27 10.5q17 11 37 19zM158 501q10 10 5 11t-16 -6q-9 -6 -4 -10q6 -4 15 5zM180 375.5 q0 6.5 -6.5 6.5t-6.5 -6.5t6.5 -6.5t6.5 6.5z" />
<glyph unicode="b" horiz-adv-x="442" d="M268 631q10 10 34 12t33 -8q7 -7 7.5 -31.5t-6.5 -28.5q-6 -4 -6 -11q1 -4 9 -3.5t19.5 5t18.5 10.5q11 10 32.5 7t23.5 -14q2 -12 -19.5 -34.5t-34.5 -22.5t-38.5 -22t-21.5 -29t25 -13q19 -5 27 -16.5t0.5 -22.5t-26.5 -14q-19 -4 -21 -15q-1 -7 3 -9t17 -2 q25 0 48 -20.5t23 -42.5q0 -15 -6 -22.5t-22.5 -12.5t-47 -5t-80.5 1q-109 5 -120 14q-11 10 -36 5q-26 -3 -41 9q-12 10 -15 27t2 56q1 11 0.5 17.5t-3.5 8.5t-11 4q-24 6 -25 37.5t22 40.5q17 6 17 20q0 16 11 34.5t27 30.5q19 14 22 28q3 28 98 23q32 -3 43 -1t18 10z M81 460.5q0 6.5 -10 6.5q-12 0 -4 -9q4 -4 8 -4q6 0 6 6.5zM218 401.5q0 6.5 -7 6.5q-8 0 1 -10q2 -3 4 -3t2 6.5zM232 342q0 5 -8 6.5t-17 0t-11 -6.5q-6 -9 11 -11q21 -3 24 9q1 1 1 2zM326 316q18 0 4 16q-12 13 -17 10q-3 -2 0 -10q4 -12 4 -13q0 -3 9 -3z" />
<glyph unicode="c" horiz-adv-x="424" d="M200 588q0 14 14 23t34 11t40.5 -0.5t33.5 -9.5q29 -16 61 -43t32 -36q0 -10 -7.5 -18.5t-17.5 -8.5q-8 0 -29 17q-12 10 -17.5 11.5t-11.5 -3.5q-9 -9 -1.5 -31.5t27.5 -47.5q20 -24 16 -39q-4 -16 6 -27q9 -14 8.5 -28.5t-10.5 -22.5q-12 -10 -37 -22.5t-50.5 -20.5 t-38.5 -8q-21 0 -32 7.5t-38 40.5q-9 11 -16 13.5t-27 -0.5q-39 -5 -65 16.5t-13 49.5q8 17 31 31q15 9 18.5 14.5t0.5 17.5q-9 42 53 78q20 11 28 19t8 17zM242 395q-4 6 -13 6t-12 -6q-4 -5 4 -16q6 -8 8.5 -8t8.5 7q9 10 4 17zM311 375.5q0 6.5 -6.5 6.5t-6.5 -6.5 t6.5 -6.5t6.5 6.5zM75 599q16 10 23 10.5t15 -6.5q10 -10 8 -24.5t-13 -20.5q-12 -7 -23 -25q-7 -15 -25.5 -21.5t-34 -1.5t-15.5 20q0 5 11 18t26 27.5t28 23.5z" />
<glyph unicode="d" horiz-adv-x="396" d="M252 627q6 18 21 15q9 -1 12.5 -6.5t4.5 -19.5q1 -25 24 -44q23 -20 32 -20q7 0 13 -9t24 -42q7 -18 0 -29.5t-23.5 -10.5t-26.5 17q-25 39 -37 33q-5 -3 -4 -16q2 -19 17 -20q14 -2 30.5 -22.5t16.5 -34.5q0 -17 -19 -38q-21 -24 -28 -58q-9 -32 -21 -36t-46 14l-33 18 l-29 -18q-31 -20 -61.5 -16t-68.5 34q-60 46 -31 68q25 18 39 53q8 21 -2 21q-9 0 -21.5 29.5t-13.5 51.5q-1 13 0 18.5t4.5 7.5t12.5 3q37 5 37 -35q0 -17 7 -21.5t17 6.5q8 7 0.5 26t1.5 28q10 9 55.5 22.5t66.5 13.5q7 0 11.5 1t8 3t5.5 5t4 8zM167 359q6 4 2 11 q-3 8 -7 3l-2 -8q0 -4 2 -6t5 0z" />
<glyph unicode="e" horiz-adv-x="325" d="M29 599q21 6 61 1.5t58 -14.5l21 -13l19 15q24 21 49 14t19 -32q-3 -9 1 -14t20 -12q49 -21 6 -52l-20 -14l27 -24q25 -21 25.5 -35t-23.5 -16q-15 -2 -17 -5.5t0 -21.5q4 -26 -11 -36.5t-63 -14.5q-51 -4 -69 -17q-16 -12 -38 -9.5t-42 18.5q-29 23 -9 78q5 15 3.5 20.5 t-13.5 15.5q-16 13 -16.5 27.5t14.5 21.5q16 5 23 19q5 8 1 15t-20 24q-23 22 -24.5 38t18.5 23zM205 377q7 9 -3 18q-6 5 -8.5 4t-5.5 -7q-3 -8 -0.5 -13.5t7 -6t10.5 4.5z" />
<glyph unicode="f" horiz-adv-x="398" d="M157 641q21 33 90 35q26 0 36 -4t28 -20q26 -23 25.5 -46t-27.5 -52q-9 -11 -9 -15.5t9 -20.5q15 -23 27 -30q31 -18 -16 -76q-29 -35 -29 -56t-16 -26q-23 -10 -23 -46q0 -16 -16.5 -37.5t-28.5 -21.5q-10 0 -30 13q-19 13 -50 13q-30 0 -43 14q-28 31 -28 62 q0 17 -23 42q-23 26 -23 49t11 39t30 20q23 5 25.5 9t-5.5 21q-10 20 -3 37q5 12 3 17.5t-19 19.5q-24 20 -21 36q1 13 15.5 18t24.5 -4q7 -7 41 -7q15 0 23 1t12.5 4.5t9.5 11.5zM203 616q3 0 5.5 2.5t3 5t-1.5 4.5t-7 2q-6 0 -8 -3.5t1 -7t7 -3.5zM252 512.5q0 6.5 -7 6.5 q-9 0 0 -10q3 -3 4 -3q3 0 3 6.5zM128 427q0 5 -23 6t-34 -4q-8 -3 -8 -11.5t8 -15.5q9 -7 21 6t24 13t12 6zM244 426q1 2 -0.5 4t-4 3t-6.5 1q-14 0 -14 -10q0 -6 5.5 -8t11.5 1t8 9zM180 310q-16 14 -37.5 18.5t-29.5 -3.5q-10 -9 11 -17q13 -5 27 -5q29 0 32 -6 q4 -7 12 -7q7 1 -15 20zM320 349q-4 20 -0.5 29.5t19.5 9.5q15 0 32.5 -22t17.5 -41q0 -15 -10.5 -28t-22.5 -13q-5 0 -19.5 -5.5t-28.5 -10t-20 -2.5q-10 6 -10 18.5t10.5 25.5t23.5 13q8 0 9.5 4.5t-1.5 21.5z" />
<glyph unicode="g" horiz-adv-x="430" d="M164 594q-4 20 -0.5 28t20.5 8q10 0 15.5 -5.5t13.5 -21.5l11 -27l39 -1q26 0 32 -2.5t8 -13.5q3 -18 21 -32t36 -11q13 3 20.5 -1t21.5 -19q20 -25 18 -41q-1 -11 -5.5 -14.5t-20.5 -5.5q-22 -2 -28 -11t6 -22q11 -12 11 -24q0 -8 -12 -27t-27.5 -36t-25.5 -22 q-14 -6 -14 -11q0 -12 28 0q11 4 21 12q23 17 44 15.5t23 -20.5q2 -11 -1 -16t-12 -8q-14 -6 -31 -24q-11 -12 -21.5 -14.5t-50.5 -2.5q-48 1 -93 -3q-25 -3 -34.5 -1t-18.5 10q-15 14 -47.5 30.5t-52.5 20.5q-17 3 -32.5 18.5t-15.5 29.5q0 10 15.5 28t23.5 18q5 0 14.5 20 t13.5 43q3 13 0 20t-15 19q-17 16 -19 34t11 30q13 11 42 20.5t49 9.5q17 0 19.5 3t-0.5 20zM196 448q-1 22 -11 24q-11 2 -14.5 -8t2.5 -23q9 -15 16 -13t7 20zM239 428q0 6 -6 6t-10.5 -7t-1 -10.5t10.5 1t7 10.5zM320 369q-4 6 -9 6q-7 0 -9.5 -6.5t2.5 -9.5q7 -4 13.5 0 t2.5 10zM120 335q2 6 -5 7h-2q-10 -1 -17.5 -5t-7.5 -9q0 -4 7.5 -4.5t15 3t9.5 8.5zM222 295q7 7 -10 17t-19 -1q0 -5 12.5 -12.5t16.5 -3.5z" />
<glyph unicode="h" horiz-adv-x="453" d="M134 635q9 8 44 5.5t45 -12.5q7 -7 7 -10.5t-7 -12.5q-17 -17 -10 -25l4 -2q7 0 11 6q3 7 29 7q18 0 22 3t6 18q1 13 4 16.5t11 2.5q13 -2 36 -1q13 0 20.5 -2.5t12.5 -10.5t6.5 -20.5t2.5 -35.5q0 -34 -2 -43.5t-12 -16.5q-15 -10 -14.5 -16t17.5 -4q11 2 14.5 6t5.5 19 q2 22 13 34t27 10q12 -1 14.5 -8.5t2.5 -44.5q0 -28 -1.5 -38t-5 -14.5t-13.5 -10.5t-13.5 -9.5t-5 -11.5t0.5 -22q2 -32 15 -43q14 -10 11 -26q-1 -10 -6 -13t-20 -4q-25 -3 -35 5q-9 8 -18.5 3.5t-11.5 -18.5q-2 -17 -19.5 -17t-34.5 19q-20 19 -27 19q-3 0 -5 -1t-4.5 -6 t-4.5 -12.5t-5 -22.5q-4 -21 -14.5 -35t-20.5 -14q-8 0 -19 9.5t-19.5 22t-8.5 20.5q0 12 -40 37q-40 22 -56 37q-20 19 -18.5 44.5t22.5 25.5q12 0 34 -16q24 -16 28 -12q6 6 3.5 18t-10.5 14q-12 5 -29 18l-19 13l-15 -15q-15 -14 -31 -12.5t-18 16.5q-2 14 9 30.5 t25 21.5q8 2 21 13t26 23.5t19 15.5q9 5 9.5 8t-4.5 8q-8 10 -30 17q-8 3 -12.5 6t-6.5 7.5t-2 12.5q0 14 4.5 16.5t26.5 2.5q31 0 39 8zM308 478q-8 8 -16.5 8t-8.5 -8q0 -4 3.5 -10.5t7.5 -12.5t8.5 -10t7.5 -4q4 0 5.5 7.5t-0.5 16.5t-7 13zM205 342q0 12 -2 13t-10 -7 t-7.5 -13.5t9.5 -5.5q2 0 4 1t3 3t2 4.5t1 4.5z" />
<glyph unicode="i" horiz-adv-x="332" d="M135 647q7 10 51 8q23 -1 30.5 -2.5t10.5 -5t4 -14.5q2 -19 21 -30q44 -25 23 -67q-11 -24 -10 -47t13 -29q13 -8 11.5 -22.5t16.5 -32.5q33 -31 3 -89q-16 -30 -34 -32t-44 23q-18 18 -26 20.5t-34 -0.5q-37 -4 -72 0q-15 1 -23.5 4t-14.5 7t-12 13q-14 19 -9.5 36 t23.5 20q21 2 25.5 11t-10.5 19q-12 8 -28.5 34.5t-24.5 35.5q-17 18 -15 36t21 20q19 3 28 -5t13.5 -4t-3.5 13q-9 11 2.5 32.5t31.5 29.5q24 9 32 18z" />
<glyph unicode="j" horiz-adv-x="430" d="M192 675q0 5 4.5 6.5t11 -1t10.5 -7.5q9 -10 27 -10q20 0 26 -17q4 -11 9 -13t20 1q28 5 49 -1t26 -20q3 -6 8.5 -11t9.5 -5q15 0 21.5 -11t6.5 -36q0 -12 -0.5 -17.5t-3 -10t-6 -7t-11.5 -5.5q-21 -10 -33 -13q-11 -5 -10 -16.5t7 -23.5t12 -16q12 -9 12 -25 q0 -15 14 -34q13 -17 11 -40q-1 -14 -4.5 -18t-13.5 -4q-16 0 -23 13q-8 17 -17 26.5t-15 7.5q-6 -3 -6 -48q0 -30 2.5 -37.5t10.5 -5.5q12 2 23 12q13 12 27 7.5t16 -19.5q2 -17 -21 -35q-49 -38 -197 -19q-36 5 -53 8.5t-26.5 7.5t-18.5 13q-18 18 -30 22q-11 3 -23 22 q-15 23 -24 32q-12 14 -10 30q1 9 6 12.5t18 4.5l22 2l-20 18q-30 29 -25 51.5t40 19.5q18 -1 22.5 1.5t6.5 13.5q4 37 9.5 49.5t27.5 27.5q29 21 42 21t13 6t-11 26l-11 21l21 18q21 18 21 26zM141 498q7 7 4 11q-4 4 -9 -3l-3 -9q0 -7 8 1z" />
<glyph unicode="k" horiz-adv-x="370" d="M86 655q10 14 24.5 13t15.5 -16q3 -14 20 -30q12 -12 19 -13.5t25 1.5q33 8 51 5.5t34 -16.5q36 -34 36 -89q0 -14 2.5 -19t9.5 -5q27 0 27 -43q0 -28 6 -31q5 -4 5 -56q0 -36 -2.5 -46t-13.5 -17q-15 -10 -30 -8q-8 1 -11.5 6.5t-5.5 21.5q-4 26 -15 27q-8 0 -10 -18 q-3 -18 -12 -25q-9 -8 -9 -20q0 -31 -51 -23q-31 5 -66 6q-15 0 -23 1.5t-12.5 4.5t-8.5 10q-10 14 -27 14q-15 0 -34 10q-26 13 -18.5 34.5t37.5 21.5q9 0 12 7t-1.5 14.5t-13.5 9.5q-29 6 -29 29q0 12 10.5 25t19.5 13q17 0 3 20q-5 8 -14 16q-17 16 -18 33t12.5 20.5 t33.5 -7.5q16 -11 20 -6q5 5 4 39.5t-6 37.5q-7 5 -6 20.5t10 27.5zM187 527q0 5 -9 5q-7 0 -16.5 -16.5t-4.5 -21.5q2 -2 15.5 12.5t14.5 20.5zM147 484q0 2 -6.5 2t-6.5 -7q0 -8 10 1q3 2 3 4zM213 484q0 2 -6.5 2t-6.5 -7q0 -8 10 1q3 2 3 4zM213 342.5q0 6.5 -6.5 6.5 t-6.5 -6.5t6.5 -6.5t6.5 6.5z" />
<glyph unicode="l" horiz-adv-x="416" d="M79 629l24 29l89 -4q150 -5 165 -43q2 -4 4 -7t5 -5t5 -2q11 0 21.5 -14t13.5 -33q2 -15 -1 -21.5t-17 -18t-16.5 -16.5t2.5 -12q19 -27 23 -60.5t-10 -42.5q-12 -8 -23.5 0.5t-14 29t-13.5 24t-20 -12.5q-5 -11 -0.5 -18t30.5 -31q21 -19 28.5 -30t6.5 -19 q-2 -16 -18.5 -17.5t-29.5 11.5q-12 13 -31 13q-7 0 -13 -2.5t-12.5 -9.5t-15.5 -20q-21 -30 -37 -32.5t-33 19.5q-10 14 -22.5 18t-18.5 -5q-4 -8 -55 -7t-62 9q-12 9 -9 30l2 23l35 -1q34 -1 34 3q-1 10 -19.5 25.5t-30.5 16.5q-19 2 -21 18.5t12 60.5l15 45l-21 21 q-21 22 -20 37.5t24 18.5q21 3 45 32zM160 585q0 5 -24.5 5.5t-29.5 -3.5q-10 -11 11 -11q6 -1 16 0q27 3 27 9zM303.5 490q3.5 -3 7 -0.5t3.5 6t-3 6.5t-7 0.5t-4 -6t3.5 -6.5zM108 479.5q0 6.5 -6.5 6.5t-6.5 -6.5t6.5 -6.5t6.5 6.5z" />
<glyph unicode="m" horiz-adv-x="408" d="M106 625q13 16 26.5 8.5t13.5 -30.5q0 -17 4 -17.5t20 11.5q30 24 58 3q13 -10 39 -6q26 5 68.5 -2.5t53.5 -18.5q13 -12 9 -34q-3 -21 -3 -50q0 -31 -17 -49t-47 -20q-31 -2 -33 -13q-2 -7 1.5 -9.5t14.5 -2.5q24 0 32.5 -16t-7.5 -30q-10 -9 -10 -25q0 -17 -22.5 -38.5 t-40.5 -21.5q-14 0 -31 13t-17 24q0 8 -3 8q-7 0 -60 -27q-34 -18 -47 -18t-20.5 10.5t-4.5 24.5q2 9 -1.5 14t-17.5 12q-32 16 -39 53.5t15 81.5q9 19 9.5 23.5t-6.5 6.5q-18 6 -24.5 12.5t-8.5 21.5q-2 18 11 32.5t34 19.5q12 2 20.5 9.5t18.5 22.5t12 17zM342 486.5 q0 6.5 -6.5 6.5t-6.5 -6.5t6.5 -6.5t6.5 6.5z" />
<glyph unicode="n" horiz-adv-x="555" d="M222 592q58 26 93 -4q13 -11 19 -12t24 6q58 21 83 -4q8 -8 10 -20t2 -46q-2 -64 13 -64q5 0 10 5q10 8 12 22q3 20 27 16q25 -5 30 -25q1 -3 1 -6q0 -12 -27.5 -35.5t-44.5 -27.5q-16 -3 -18.5 -7.5t5.5 -12.5q6 -5 5 -29t-8 -39q-4 -11 9 -14t13 -20q0 -15 -7 -20 t-38 -9q-66 -7 -66 41q0 22 -13 26q-8 3 -13.5 1.5t-10.5 -7.5t-11 -18q-11 -23 -30.5 -17t-19.5 32q0 19 -12 19t-20 -10t-35 -10q-12 0 -19.5 2.5t-15.5 9t-23 20.5q-13 14 -19.5 22t-9.5 15.5t-3 17.5q0 24 15 34q10 6 11 11.5t-5 20.5q-8 24 -6.5 34.5t15.5 19.5 q16 10 16 19q0 11 20.5 32t41.5 31zM352 479q-28 17 -28 11q0 -2 1 -5q3 -9 23 -20t24 -6q1 2 -1.5 5t-7 7t-11.5 8zM176 378q7 -19 16 -3q9 19 1 28q-3 4 -8 0t-8 -11.5t-1 -13.5zM17 569q8 8 51 4q42 -3 59 -11t17 -23q0 -12 -5 -14.5t-26 -2.5q-30 0 -35 -5t-24 -5 q-24 0 -38 21.5t1 35.5z" />
<glyph unicode="o" horiz-adv-x="367" d="M83 597q39 13 109 11.5t90 -14.5q13 -8 15.5 -26t-7.5 -27q-1 -3 -1 -4.5t2.5 -4t7.5 -5.5t14 -7q24 -11 29.5 -22t10.5 -54l5 -39l-24 -21q-17 -13 -21 -22t-5 -33l-1 -36l-30 -1q-31 -3 -45 5q-14 7 -25 -3q-12 -10 -30 -10q-11 0 -27.5 6.5t-29 15t-12.5 14.5 q0 9 -27 9t-45 19q-13 14 -15.5 24t-1.5 50q2 54 7 67q6 11 -5 18q-11 6 -11 32q0 16 6 25t20.5 16.5t46.5 16.5zM133 469q-17 4 -20 4q-6 0 -11 -10l1 -4q36 -7 44 1q4 3 -7 7q-3 1 -7 2zM303 448q-1 10 -4 16.5t-7 7.5t-8.5 -3t2.5 -23t13 -19t4 21z" />
<glyph unicode="p" horiz-adv-x="528" d="M277 607q18 18 36.5 7t13.5 -36q-3 -18 1 -18.5t29 12.5q46 23 88 -4q11 -7 13.5 -15t0.5 -34l-2 -38l32 -24q32 -25 29.5 -43.5t-38.5 -18.5q-25 0 -37 -12.5t-3 -29.5q10 -18 5.5 -33t-21.5 -22q-26 -12 -33 -18t-11 -23q-6 -22 -14 -32q-7 -6 -10.5 -5.5t-11.5 7.5 q-12 11 -22 11t-22 14q-10 10 -20 10t-48 -9q-23 -5 -26 -22q-7 -18 -20 -18t-26 13t-13 27q0 13 -23 38q-20 22 -22.5 42.5t10.5 55.5q8 22 7.5 29t-10.5 19q-34 44 14 98q13 15 22 22t21.5 11.5t41.5 12.5q57 15 69 26zM276 412q22 -4 21 3q-2 9 -21 16q-17 5 -18 -6 q0 -9 18 -13zM166 353q0 16 -6 16q-5 0 -9 -14t0 -20q5 -10 12 2zM19 385q6 13 11.5 18t14.5 5q32 0 18 -44q-5 -15 -4 -22.5t9 -19.5q24 -32 6 -50q-21 -21 -47 19q-29 44 -8 94z" />
<glyph unicode="q" horiz-adv-x="534" d="M71 621q7 17 52.5 4t69.5 -39q15 -17 20 -19t19 6q28 13 65.5 10t73 -21t41.5 -40q3 -15 27 -33q17 -13 19.5 -20.5t-0.5 -39.5q-2 -38 4 -38q1 0 4 1q15 7 32.5 5t23.5 -11q7 -12 -0.5 -22.5t-27.5 -17.5q-16 -5 -19.5 -11t-3.5 -31q-1 -31 -10.5 -41.5t-26.5 0.5 q-9 5 -17.5 0t-36.5 -32q-25 -24 -36.5 -31.5t-23 -6.5t-17 6t-9.5 19q-6 16 -11 19t-27 2q-12 -1 -19.5 0t-12 4t-9.5 10q-13 16 -47 20q-22 3 -48 10.5t-46.5 16.5t-29.5 18q-22 20 -10.5 42t44.5 22q26 0 38 13q3 5 0 8q-6 4 -47 -6q-40 -10 -50 -2q-24 19 20 64 q18 18 23 26.5t2 18.5q-4 15 8 28.5t37 20.5t25 12.5t-31 13.5q-24 7 -31 16.5t-1 25.5zM359 506q0 9 -12 12q-4 1 -6.5 0t-3.5 -3.5t1 -6.5q1 -7 6 -10t10 -1t5 9zM411 441q-4 5 -9.5 5.5t-9 -5t5.5 -13.5q7 -6 13 -1t0 14zM354 363q-2 8 -11 11q-4 1 -5.5 -0.5t0.5 -5.5 q2 -9 11 -11q5 -2 6 1q0 2 -1 5z" />
<glyph unicode="r" horiz-adv-x="431" d="M98 622q-4 18 2.5 29.5t20.5 11.5q11 0 35 -29t24 -42q0 -15 16 -24.5t31 -3.5q16 6 24 16q18 21 41 0q8 -7 12 -7t11 5q10 10 49 11q24 1 32.5 -1t15.5 -12q15 -21 8.5 -59.5t-29.5 -64.5q-9 -10 -3 -15q18 -10 -7 -68q-8 -19 -16 -29t-22 -18q-17 -8 -21.5 -14.5 t-5.5 -25.5l-2 -28h-62q-31 -1 -44 0t-21.5 4.5t-20.5 12.5q-16 11 -26 14t-27 1q-44 -7 -44 32q0 14 -30 45q-29 32 -29 49q0 32 22 44q21 11 28 -11l2 -8q3 -15 18 -38.5t23 -23.5q4 0 5 6.5t-2 16.5t-8 20q-10 19 -9.5 51.5t10.5 43.5q7 8 6.5 12.5t-7.5 16.5 q-8 11 -8.5 18t4.5 20q7 20 4 42zM154 478q8 8 0 11q-6 1 -10 -3q-5 -8 -0.5 -11.5t10.5 3.5zM271 453.5q0 6.5 -6.5 6.5t-6.5 -6.5t6.5 -6.5t6.5 6.5zM232 398q-8 10 -18 10q-9 0 -2 -8q2 -3 6 -7q14 -14 19 -8q3 3 -5 13zM261 316q-6 5 -41 10q-33 5 -33 -1q0 -1 1 -3 q3 -9 38 -14q39 -4 39 2q0 2 -4 6z" />
<glyph unicode="s" horiz-adv-x="495" d="M217 630q22 11 38 12t35 -9q30 -15 37 -43.5t-10 -63.5q-21 -40 10 -40q8 0 21 -17q13 -19 14 -8q0 11 -11 19q-10 9 -7 28q1 13 4.5 17.5t13.5 5.5q7 0 12 -1.5t10 -7t13 -16.5q17 -28 17 -49q0 -12 3 -19.5t8 -8.5t11 4q8 9 26.5 7.5t21.5 -10.5q5 -12 -2.5 -28.5 t-18.5 -18.5t-24 -12q-10 -10 -36 -8q-16 2 -21 5.5t-6 13.5q-4 25 -18 31q-8 2 -9 -12q0 -13 -13 -26t-13 -35q0 -12 -5 -23.5t-13 -23.5t-10 -17q-4 -10 -19 -11.5t-24 7.5q-8 8 -16 0t-22.5 -7.5t-21.5 9.5q-9 10 -37 10q-27 0 -44 10.5t-17 26t-11 20.5q-14 4 -24.5 19 t-10.5 30q0 17 23 35q23 17 19 23t-32 6q-19 0 -25.5 3t-13.5 17q-11 19 -9 40q1 9 3.5 14.5t8 9.5t15.5 9q37 19 14 37q-9 8 -7.5 21.5t11.5 19.5q9 6 46 -3.5t43 -18.5q4 -7 19.5 -5.5t22.5 10.5q9 10 31 22zM277 581q-9 10 -17 10q-11 0 -11.5 -7t8.5 -16q14 -13 23 -5 q7 7 -3 18zM256 354q-19 20 -33 -8q-5 -11 -3.5 -16.5t11.5 -15.5t13 -10.5t11 8.5q18 26 1 42z" />
<glyph unicode="t" horiz-adv-x="436" d="M123 613q18 16 28.5 19.5t40.5 4.5q13 0 24.5 -1.5t20 -4t14.5 -6t9.5 -8t3.5 -10.5q0 -9 18 -11q5 0 8.5 -1.5t6 -4t3.5 -6t2 -8.5q2 -18 -8 -22q-24 -9 3 -16q3 -1 7 -2q21 -4 32.5 6.5t29.5 7.5q11 -1 15.5 -5t5.5 -14v-9.5t-2.5 -6.5t-6 -6t-8.5 -6q-18 -9 -28 -20 q-4 -5 -4 -10t3.5 -10t9.5 -8.5t15.5 -5.5t19.5 -2q13 0 19 -1.5t9.5 -4.5t6.5 -11q15 -41 -4 -61q-17 -19 -39 8q-1 1 -2 3q-24 33 -27 -21v-18q0 -33 -3 -43t-18 -25q-15 -16 -23.5 -18t-40.5 1q-18 1 -31.5 4t-25.5 7.5t-22 11t-20 16.5q-11 10 -15.5 11t-10.5 -6 q-9 -12 -24.5 -9t-30.5 19q-19 19 -33 19q-13 0 -20 9t-15 35q-20 60 20 88q13 10 16 16.5t1 23.5q-4 25 -21.5 44t-14.5 37q1 15 9.5 17t47.5 -5q15 -2 24 1t25 18zM244 558q0 7 -7 10q-5 -1 -6 -6q0 -10 6.5 -10t6.5 6zM85 414q-5 7 -11 7q-7 0 -10 -8t3 -14q7 -7 15 -0.5 t3 15.5zM219 367q-24 8 -32 7.5t-8 -7.5q0 -25 40 -25q16 0 22 4.5t0 10.5t-22 10z" />
<glyph unicode="u" horiz-adv-x="410" d="M401 567q0 -14 -6.5 -25t-6.5 -25q-1 -22 -10 -37q-8 -15 -9 -43t7 -33q7 -4 4 -21q-3 -18 10 -27q9 -8 10 -14t-3 -20q-3 -12 -8.5 -17.5t-14.5 -6.5q-18 -2 -20 -19t-13.5 -24t-23.5 1q-11 7 -36 17q-18 8 -22 7t-8 -12q-2 -7 -6.5 -10t-13.5 -4t-30 -2q-31 0 -40.5 3 t-24.5 18q-20 20 -24 30q-3 10 -12 2t-23 -8q-33 0 -46.5 24.5t-13.5 83.5q1 60 9 71q18 26 -4 46q-14 13 -12 29q2 12 7.5 14.5t30.5 3.5q27 0 32 3t8 19q5 22 16 31q15 10 28 6t34 -25q19 -19 25.5 -22t18.5 1q83 34 104 40.5t37 1.5q23 -8 36.5 -23t13.5 -34zM319 482 q12 4 5 13q-10 9 -18 -3q-5 -7 -0.5 -10.5t13.5 0.5zM87 464q0 3 -6.5 3t-6.5 -8t10 1q3 3 3 4zM172 319q0 10 -6.5 10t-6.5 -5q0 -7 8 -11q4 1 5 6z" />
<glyph unicode="v" horiz-adv-x="424" d="M88 622q17 8 42 7q17 -2 23.5 -6.5t14.5 -18.5q11 -23 14 -29q0 -1 1 -1t3 0.5t3.5 1.5t4 3t4.5 4q10 10 18 11.5t29 -1.5q31 -4 36 4t21 6.5t20 -10.5q3 -9 18 -15t20 -26q1 -7 3.5 -11.5t6 -6.5t8.5 -2q14 0 25.5 -11.5t11.5 -24.5q0 -9 -3.5 -15t-11.5 -10.5t-22 -7.5 q-18 -3 -20 -7.5t8 -17.5q14 -19 9 -36t-32 -39q-32 -28 -32 -40t-18 -26t-54 -13q-35 3 -43 -1q-8 -5 -63 -5t-64 6q-12 6 -15 27q-1 22 -15 24q-13 2 -21 13.5t-8 27.5q0 17 24 38l24 19l-4 42q-4 41 7 58q11 15 11 47q0 22 3 29t13 13zM212 425q3 -3 7 -1t4 6t-3.5 6.5 t-7 0.5t-3.5 -5.5t3 -6.5zM317 410q0 11 -6.5 11t-6.5 -6q0 -7 7 -10q5 0 6 5zM232 340q9 -7 10 6q-1 14 -10 16q-4 0 -5.5 -4.5t0 -10t5.5 -7.5z" />
<glyph unicode="w" horiz-adv-x="398" d="M144 616q13 15 33 11t57 -7q26 -3 36 -9t32 -32q32 -37 35 -53q4 -17 23 -20q8 -1 12.5 -3.5t6.5 -6.5t3 -12q1 -7 -0.5 -11.5t-5.5 -7.5t-13 -6q-21 -7 -30 -29q-10 -24 -8 -26q1 -1 13 13q14 19 32.5 16t18.5 -25q0 -11 -28.5 -38.5t-41 -27.5t-14 -5t8.5 -14 q10 -8 9.5 -27.5t-9.5 -22.5q-10 -4 -27 3q-11 5 -16.5 4t-15.5 -9q-8 -9 -16 -11t-22 1q-25 5 -27 10q-3 6 -21.5 2.5t-35.5 2.5q-11 5 -14.5 10.5t-3.5 19.5t-4.5 22t-18.5 19q-18 14 -21.5 27.5t8.5 17.5q15 7 7 12q-4 4 -15 4q-21 0 -34.5 16t-13.5 43q0 30 7 36.5 t-7 18.5q-11 11 -13 37.5t8 36.5t30 7.5t36 -15.5q17 -16 24 -16t14 14q7 13 22 30zM212 563q-26 20 -38 5q-9 -10 5 -15q7 -2 20 -5q22 -4 21 4q-1 5 -8 11zM167 414.5q0 6.5 -7 6.5q-9 0 1 -10l4 -3q2 0 2 6.5zM219 325q0 9 -12 25l-12 15l-12 -24q-8 -17 -8.5 -22.5 t6 -12t10.5 -6.5t14 7q14 10 14 18z" />
<glyph unicode="x" horiz-adv-x="390" d="M186 597q20 8 108 -4q32 -4 46 4q17 9 28.5 5t12.5 -20q2 -18 -24 -67l-27 -50l21 -41q19 -40 17 -66q-1 -18 -4.5 -21.5t-21.5 -3.5q-15 1 -20 -1t-5 -9q0 -13 -21 -29.5t-38 -16.5q-45 0 -62 34q-7 13 -14 15.5t-33 2.5q-38 0 -45.5 7.5t-18.5 -9.5q-11 -18 -29 -16 q-13 2 -15 15t6 60q2 19 -0.5 27.5t-16.5 23.5q-20 24 -20 36q0 13 22.5 43.5t50 55.5t39.5 25t19 -17l7 -19l11 15q11 15 27 21zM205 507q-4 12 -14 10q-5 -1 -5 -7q0 -11 11 -11q10 0 8 8zM100 492q-2 11 -10 11.5t-15 -10.5q-6 -13 -3 -17t16.5 0.5t11.5 15.5zM322 352 q7 7 -9 15q-15 7 -15 -4q0 -5 10 -10t14 -1zM256 332q6 4 -7 16q-9 8 -13 2q-2 -3 2 -9t10 -9t8 0z" />
<glyph unicode="y" horiz-adv-x="455" d="M301 577q12 7 57 7q33 0 42 -3t25 -20q15 -16 18.5 -25t2.5 -29q-2 -21 -6 -27.5t-22 -14.5q-42 -18 -50.5 -25t-6.5 -22q2 -18 12 -34q10 -15 11 -49q1 -26 -1.5 -30.5t-16.5 -4.5q-12 0 -16.5 4.5t-9.5 18.5q-5 15 -9.5 18.5t-17.5 2.5q-20 -3 -28 -11q-5 -5 -2.5 -9.5 t16.5 -12.5q17 -10 28.5 -33t5.5 -37q-4 -10 -20 -9t-22 12q-7 12 -23 9t-31 -19q-17 -19 -40.5 -15.5t-59.5 29.5q-46 33 -53 38q-14 10 -23 28q-9 19 -30 44q-26 28 -20 48t44 34q26 10 41 28t6 30q-11 16 -12.5 24t5.5 21q26 50 114 28q28 -8 38 0q7 5 26.5 3.5t27.5 2.5 zM385 529q-26 19 -33 0q-8 -19 8 -27t29 8q5 7 4.5 10.5t-8.5 8.5zM251 448q0 6 -6.5 6t-6.5 -11q0 -12 9 -3q4 4 4 8zM205 283q0 6 -6 9.5t-10 -0.5q-5 -5 -3 -10t9 -5q10 0 10 6z" />
<glyph unicode="z" horiz-adv-x="451" d="M81 612q12 12 39 11.5t44 -13.5q15 -11 47 -12.5t52.5 9.5t48 10t39.5 -13q22 -22 9.5 -54.5t-44.5 -41.5q-17 -3 -17 -9q0 -4 10.5 -5.5t23 0.5t16.5 6q7 7 26 5q16 -2 20 -15.5t-6 -27.5t-27 -16q-10 -2 -12.5 -10.5t-5.5 -40.5q-3 -48 2 -56q8 -9 25 21l13 32 q11 35 22.5 44.5t27.5 -3.5q22 -18 -22 -107q-19 -39 -25.5 -45.5t-24.5 -5.5q-24 0 -45 20q-22 21 -59 32l-37 13l-14 -19q-10 -14 -18 -16t-37 0q-40 2 -65 20q-16 12 -19.5 20t-3.5 28t-4.5 29t-21.5 23q-53 46 -1 87q25 20 35 20q12 0 14.5 8t-5.5 19q-21 29 0 53z M277 487q-6 -8 -1 -12q5 -5 9 2q1 4 0 10q-2 5 -3.5 5t-4.5 -5zM292 427.5q0 13.5 -6.5 13.5t-6.5 -13.5t6.5 -13.5t6.5 13.5z" />
<glyph unicode="{" horiz-adv-x="411" d="M203 618q18 6 41.5 3t29.5 -12q8 -13 -1 -24t-32 -17q-20 -5 -30 -9.5t-10.5 -10t7.5 -12t27 -15.5l34 -17l42 21q33 16 48.5 18.5t30.5 -4.5q12 -8 12 -37q0 -27 -10.5 -43.5t-30.5 -21t-50 3.5q-19 4 -27.5 2t-29.5 -16q-30 -21 -24 -31q5 -18 7 -45q3 -33 -11 -64 q-14 -27 -10.5 -37.5t24.5 -12.5t20 -7q-1 -9 -40 -10q-25 -2 -33.5 0.5t-15.5 12.5q-11 14 -11 34q0 21 -10 36l-11 15l-18 -18q-28 -27 -40 -11q-13 17 10 50q3 4 7 9q19 21 19 30t-17 29q-14 14 -44 14q-27 0 -36.5 7.5t-9.5 29.5q0 19 17 40.5t41 31.5q14 6 34 30.5 t34 30.5q13 4 35.5 13.5t31.5 13.5zM158 482q-4 11 -11 11q-8 0 -10.5 -11t3.5 -17q7 -8 14.5 -0.5t3.5 17.5zM214 463q0 4 -3.5 7t-7 1.5t-3.5 -8t3.5 -8t7 1t3.5 6.5z" />
<glyph unicode="|" d="M10 -69.5q0 6.5 500 6.5t500 -6.5t-500 -6.5t-500 6.5z" />
<glyph unicode="}" horiz-adv-x="391" d="M107 649q31 17 73 12.5t53 -25.5q6 -13 18 -11.5t39 18.5q31 20 41 20q8 0 15.5 -6.5t12 -16.5t4.5 -20q0 -20 -19.5 -37t-45.5 -20q-15 -1 -19 -4.5t-6 -14.5q-2 -18 16 -29q13 -9 22 -24t11 -31.5t0 -31t-11 -24t-23 -9.5t-22 -10t-6 -24q2 -15 15 -13q60 8 71 6.5 t23 -15.5q14 -19 13 -45q-2 -13 -3.5 -18t-5 -7t-13.5 -2q-11 0 -15.5 3.5t-7.5 13.5q-3 11 -10 13.5t-40 0.5q-34 -2 -42.5 0.5t-19.5 17.5l-17 22l-35 -19q-21 -11 -29 -19t-9.5 -19.5t-5.5 -15.5t-14 -4q-7 0 -10.5 1.5t-5.5 6t-4 13.5q-3 22 -19 30q-12 6 -14 13t-1 33 q1 24 -2.5 36t-18.5 34q-33 48 -29.5 67t48.5 34q13 3 5 11t-8 19q0 10 -14 20q-14 9 -10.5 20t20.5 11t24 14t31 25zM192 601q-18 17 -43 10.5t-22 -27.5q2 -17 14 -28t29 -11q15 0 19 3.5t8 20.5q3 24 -5 32z" />
<glyph unicode="~" horiz-adv-x="339" d="M149 607q30 21 62 -6q17 -14 25 -15.5t12 8.5q3 7 12.5 8.5t21 -2.5t22.5 -11t18.5 -16.5t7.5 -18.5q0 -13 -9.5 -21.5t-22.5 -5.5q-13 4 -24 -9q-12 -14 -27 -10.5t-36 26.5q-18 19 -22.5 21.5t-10.5 -6.5q-19 -30 -28.5 -36.5t-29.5 -4.5l-25 4v-22q0 -32 -18 -30 q-20 3 -37 38q-15 29 -22 35q-10 11 -7.5 25.5t16.5 20.5q17 8 56 -1q30 -5 40.5 -3.5t10.5 13.5q0 9 15 19z" />
<glyph unicode="&#xa2;" d="M10 -69.5q0 6.5 500 6.5t500 -6.5t-500 -6.5t-500 6.5z" />
<glyph unicode="&#xa3;" horiz-adv-x="442" d="M191 669q18 11 72.5 -1.5t60.5 -29.5q5 -14 23 -18q5 -1 13 -3.5t12.5 -3.5t10 0t11.5 5q11 7 22.5 3.5t15.5 -14.5t-5.5 -27.5t-23.5 -21.5q-10 -4 -12.5 -12.5t-2.5 -41.5q0 -34 -3.5 -47t-22.5 -41l-27 -40l14 -20q16 -21 27 -27q13 -7 11 -24q-5 -41 -68 1 q-22 14 -35 18.5t-33 4.5h-33l4 -21q4 -21 -3 -39q-4 -11 -9.5 -14.5t-17 -3.5t-19 5t-16.5 20q-17 27 -32 35.5t-50 11.5l-43 3l-2 23q-2 23 6 47t-1 35q-8 9 -4 30q3 21 -7 33q-9 11 -13 37q-2 19 1.5 27t21.5 26q53 51 103 20q22 -15 28 -11t10 36q5 33 16 40zM110 561 q-12 4 -18 3t-18 -11q-17 -15 -8 -27q11 -15 38 3q14 10 15.5 18.5t-9.5 13.5zM320 523q-5 3 -11.5 5.5t-13 3t-12 0t-9 -3t-3.5 -5.5q0 -6 6.5 -13t16.5 -12t18 -5q13 0 16 11t-8 19zM310 433q0 4 -20.5 11.5t-21.5 9.5q-4 6 -13.5 5.5t-9.5 -5.5q0 -13 10.5 -33t17.5 -20 q9 0 23 12.5t14 19.5zM179 383l-5.5 4.5t-13 9.5t-15 10.5t-13.5 9.5t-6 3q-16 -3 -31.5 -22t-8.5 -25q5 -5 42 -4t45 6q9 6 6 8z" />
<glyph unicode="&#xa7;" d="M10 -69.5q0 6.5 500 6.5t500 -6.5t-500 -6.5t-500 6.5z" />
<glyph unicode="&#xbf;" d="M10 -69.5q0 6.5 500 6.5t500 -6.5t-500 -6.5t-500 6.5z" />
<glyph unicode="&#xc0;" horiz-adv-x="534" d="M230 750q3 1 6.5 1.5t6 1t2.5 1.5q10 2 31 -29.5t21 -47.5q0 -11 13 -27l12 -15l10 20q11 20 24.5 27t41.5 7q23 0 39.5 -10.5t16.5 -25.5q0 -12 15 -30q7 -9 9.5 -19t4.5 -26.5t3 -52.5q1 -33 0.5 -51.5t-2.5 -26.5t-7 -14q-10 -10 -27.5 -11.5t-26.5 6.5q-7 7 -11 1 q-4 -7 25.5 -27t41.5 -20q11 0 30 -14q18 -14 16.5 -33.5t-21.5 -33.5q-12 -10 -30 -12.5t-81 -3.5q-67 -2 -84.5 0.5t-41.5 13.5q-32 17 -61 23q-21 5 -27.5 3.5t-15.5 -12.5q-14 -16 -31 -16q-16 0 -17.5 9t9.5 35q11 25 1.5 33t-47.5 8q-26 0 -37 2.5t-18 10.5 q-21 20 -8 51.5t63 78.5q21 21 25.5 30.5t4.5 35.5q0 36 5 45q3 4 11.5 9t19.5 8.5t23 6.5t21 3q12 0 15 4t3 21q0 55 24 62zM421 522q0 27 -16 11q-8 -7 -26 -9q-19 -2 -19 -7q-1 -8 31 -10q22 -1 26 1t4 14zM99 452q15 -17 31 14q10 20 4 23q-3 2 -13 -6t-17.5 -18.5 t-4.5 -12.5z" />
<glyph unicode="&#xc1;" horiz-adv-x="9" />
<glyph unicode="&#xc2;" horiz-adv-x="558" d="M234 754q26 16 68 -4t62 -58q22 -43 34.5 -58.5t27.5 -18.5q25 -5 35 -21t10 -52q0 -40 -9 -49q-11 -9 -9 -17t16 -18q11 -8 16.5 -9t12.5 3q12 8 20.5 7.5t19.5 -10.5q27 -24 -12 -67q-23 -26 -43.5 -27t-45.5 23q-25 23 -25 15q0 -7 11 -27t25 -39q8 -12 8 -17t-7 -17 q-10 -15 -24.5 -14.5t-68.5 18.5l-60 21l-13 -13q-8 -8 -24.5 -11.5t-62.5 -6.5l-74 -5l-18 21q-17 21 -20 38q-1 16 -24 24q-23 7 -30 26q-4 12 -1.5 18t14.5 16q11 10 19.5 13t23.5 1q20 -3 33.5 2.5t33.5 23.5q16 16 17 24.5t-13 18.5q-31 22 -41 57t6 65q19 37 59 29 l22 -3v26q0 22 9 43t22 29zM299 680q-14 10 -22.5 8.5t-6.5 -13.5q1 -13 13 -17t21 5q7 7 -5 17zM229 593q0 11 -6.5 11t-6.5 -6q0 -7 8 -10q4 0 5 5zM392 536q7 -5 11 3q2 6 -3 9q-7 5 -10 -4q-3 -5 2 -8zM321 480q0 16 -44 -2q-30 -14 -29 -22q5 -6 21 -4t34 11.5t18 16.5 zM367 382q-6 11 -15.5 12.5t-14.5 -6.5q-4 -7 4.5 -16.5t19.5 -9.5t12 3.5t-6 16.5zM54 668q8 7 25.5 7t24.5 -7q8 -8 6.5 -20.5t-15.5 -42.5q-11 -27 -12 -35.5t5 -25.5q9 -20 20 -32q16 -13 5.5 -32.5t-34.5 -19.5q-38 0 -57 49q-13 35 -12 49t16 45q20 40 20 48.5t8 16.5 z" />
<glyph unicode="&#xc4;" horiz-adv-x="601" d="M294 679q15 12 43.5 10t41.5 -16q14 -13 16.5 -35t-7.5 -33l-2 -1q-6 -6 1 -11q4 -3 28 -17q5 -3 7 -4q22 -12 32 -21.5t16 -25.5q10 -26 9.5 -42t-11.5 -31q-14 -17 -38 -19q-18 -2 -21 -6t-4 -27v-30l27 2q18 1 22 4.5t6 17.5q5 47 72 47q60 0 60 -33q0 -12 -13 -22 t-30 -12q-8 -1 -12 -3t-6.5 -6.5t-4.5 -14.5q-6 -27 -19.5 -37t-44.5 -10q-60 0 -60 34q0 12 -6 12q-5 0 -6.5 -8.5t1 -21.5t8.5 -26q4 -11 5.5 -15.5t0 -7t-5.5 -4.5q-9 -3 -26 1q-15 4 -26 -9q-12 -14 -23 -14q-13 0 -23.5 14t-7.5 26q3 14 -6 16.5t-28 -6.5 q-19 -10 -32 -10t-21 -11q-8 -9 -25 -7.5t-17 10.5q0 3 -4 6.5t-10.5 7t-14.5 6.5q-25 10 -41 25.5t-26 41.5q-10 28 -23 31q-12 2 -23.5 12.5t-11.5 19.5q0 11 11.5 22.5t22.5 11.5t57 27t46 33q0 5 -10 10q-22 8 -25.5 43.5t15.5 52.5q13 12 59 27.5t69 15.5q26 0 39 10z M337 586q0 5 -20 5q-14 0 -16.5 -2.5t1.5 -12.5q3 -14 6 -17q2 -2 9 3t13.5 12.5t6.5 11.5zM398 516q-12 9 -16.5 9t-11.5 -8q-7 -9 -2 -13.5t22 -4.5q16 0 17.5 4t-9.5 13zM143 418q4 13 -3.5 16t-17.5 -8q-6 -7 1.5 -27t19.5 -30q15 -12 15 -2q0 6 -7 17q-12 17 -8 34z M271 394.5q0 6.5 -13 6.5q-10 0 -10 -4q2 -8 14 -9q9 0 9 6.5z" />
<glyph unicode="&#xc7;" horiz-adv-x="640" d="M174 744q12 15 29.5 16t47.5 -12q29 -13 59 -13q28 0 78.5 -9t63.5 -16q19 -10 22 -33t-12 -36q-8 -7 -9.5 -21t0.5 -62q2 -46 0.5 -61t-8.5 -23t-8 -18.5t2 -37.5q4 -42 -4 -53q-8 -10 -4 -14q4 -5 46 37q32 31 37.5 41.5t5.5 37.5q0 19 1.5 27t6 14t16.5 16l24 19 l-21 11q-25 13 -32 36t9 41q13 14 26 9.5t44 -32.5q27 -26 32 -35.5t5 -35.5q0 -35 -5 -46.5t-22 -21.5q-19 -9 -19 -29q0 -21 -10 -35.5t-57 -63.5q-44 -48 -64.5 -55t-63.5 7q-18 7 -25.5 7t-18.5 -7q-13 -9 -29 -8.5t-111 10.5q-46 6 -69 17.5t-35.5 36.5t-12 36.5 t15.5 26.5l17 17l-13 25q-14 24 -14 38t11 35.5t26 37.5q27 30 28 115q0 19 1.5 30t4 19t8.5 15zM265 659q0 3 -2 5.5t-5 3.5t-6 1q-6 0 -9.5 -3t-3.5 -6.5t3.5 -6.5t9 -3t9.5 3t4 6zM359 471q7 7 -10 18q-17 9 -19 -1q0 -6 13 -13t16 -4zM86 656q20 17 27.5 18t20.5 -11 q15 -15 11.5 -30t-25.5 -36q-18 -16 -28.5 -21t-28.5 -5q-15 0 -27 4.5t-19 11.5t-7 16q0 11 12.5 22.5t25.5 11.5q15 0 38 19z" />
<glyph unicode="&#xc8;" horiz-adv-x="554" d="M173 737q0 4 19 4q11 0 20 -7t24 -27q25 -34 52 -43q35 -11 49.5 -37.5t-5.5 -42.5q-11 -10 -23 -37q-12 -28 -18 -31q-9 -6 -6 -11.5t15 -5.5q21 0 29 6t8 21q0 14 11.5 29.5t20.5 15.5q8 0 23 -17q12 -13 21.5 -14.5t50.5 1.5q40 3 49 1.5t19 -14.5q27 -35 1 -58 q-9 -8 -15.5 -8.5t-22.5 4.5q-24 8 -54 6q-21 -2 -25.5 -5.5t-7.5 -21.5q-3 -24 -12 -33q-7 -6 -6.5 -11.5t7.5 -5.5q9 0 20 -12t11 -21q0 -14 -15 -23t-40 -11q-22 -1 -28 -4.5t-8 -13.5l-4 -17l-106 -1q-99 -2 -128.5 4.5t-42.5 32.5q-15 28 -13.5 54.5t17.5 40.5 q17 16 29 20q29 9 -15 22q-24 7 -44 25.5t-20 33.5q0 17 17.5 31.5t37.5 14.5q15 0 20.5 4t12.5 18q9 19 11 34q2 8 10 10.5t39 4.5q47 2 58 14q8 10 6 16t-22 29q-27 33 -27 36zM180 531q0 7 -9 13q-8 7 -13.5 1.5t-0.5 -13.5q3 -4 8.5 -5.5t10 0t4.5 4.5zM265 453.5 q0 6.5 -10 6.5t-10 -6.5t10 -6.5t10 6.5z" />
<glyph unicode="&#xc9;" horiz-adv-x="502" d="M208 710q17 24 35.5 25.5t34.5 -18.5q8 -11 10 -20t0 -27q-2 -19 -1 -23t9 -2q39 13 55 16t23 -2q14 -9 13.5 -25t-15.5 -27q-12 -11 -13.5 -15t6.5 -15q11 -15 11 -33q0 -9 6.5 -24.5t15 -27.5t13.5 -12q4 1 1.5 11.5t-6.5 29.5t-7.5 38t-2 37.5t9.5 28.5q18 19 36.5 7 t18.5 -44q0 -25 9 -68q10 -41 5.5 -67t-25.5 -46q-31 -30 -10 -29q3 0 8 2q7 2 18 -2.5t19 -12t8 -15.5q0 -10 -13 -53q-16 -51 -36 -57t-70 24l-43 26h-108q-78 0 -97.5 2.5t-45.5 15.5q-34 17 -45.5 27.5t-11.5 23.5q0 29 37 29q24 0 21.5 11t-28.5 21q-28 13 -36 22 q-10 13 -5.5 31t20.5 26q20 11 22 28t-14 34q-21 20 -15 45.5t42 64.5q14 15 35.5 17.5t31.5 -9.5q7 -9 21.5 -9.5t24.5 8.5q8 5 28 32zM212 593q0 4 -7.5 4.5t-17 -1.5t-13.5 -6.5t-6 -13.5t-1 -16.5t5 -7.5q5 0 22.5 18t17.5 23zM317 498q0 6 -13 18q-9 8 -11.5 8t-5.5 -8 q-5 -12 4 -17q6 -4 12 -5.5t10 0t4 4.5zM357 442q-30 42 -33 43q-2 0 8 -21q2 -4 4 -9q6 -12 12 -19t9 -5q7 4 0 11zM238 407q0 5 -16.5 17.5t-26.5 17.5q-5 3 -16.5 -4t-21 -17t-6.5 -14q2 -3 24 -4.5t42.5 -0.5t20.5 5zM360 349q12 0 4 9l-9 4q-6 0 -6 -6.5t11 -6.5z" />
<glyph unicode="&#xca;" horiz-adv-x="567" d="M236 754q16 20 39 20q12 0 28 -5.5t27.5 -13t11.5 -13.5t40 -46l40 -40h48q33 0 44 -2.5t21 -13.5q15 -14 15.5 -29t-11.5 -39q-15 -28 -27 -34.5t-42 -2.5l-36 4l-4 -24q-4 -23 -21 -42q-15 -19 -7.5 -23t37.5 2q22 2 28 5.5t6 12.5q0 16 13.5 26.5t28.5 6.5 q43 -10 43 -61q0 -19 -2.5 -28t-14 -15.5t-29 -8.5t-54.5 -3q-96 -4 -89 -17q1 -3 8 -5q13 -5 17 -20q7 -16 25 -19q22 -5 30 -11.5t9 -20.5q4 -26 -15 -33.5t-54 7.5q-25 10 -119 35q-94 23 -104 30q-16 9 -53 28q-44 23 -65.5 40t-30.5 36q-23 48 24 94q23 23 52 79 q29 58 43.5 72t39.5 11q19 -2 24 1t11 18q8 24 25 42zM295 694q-14 14 -22 1q-2 -5 -1 -9t6 -7t12 -3q23 0 5 18zM309 631q0 4 -9.5 5t-20 -1t-13.5 -6q-8 -12 7 -16q10 -2 20 4q16 8 16 14zM151 466q-14 6 -42 10q-17 3 -23.5 2t-8.5 -8q-5 -11 1 -16q11 -10 46 -27.5 t37 -14.5q5 4 5 27q0 22 -15 27zM329 461q0 8 -14 5q-14 -4 -10 -12l4 -4q6 -3 13 0.5t7 10.5z" />
<glyph unicode="&#xcb;" horiz-adv-x="677" d="M251 751q15 12 24.5 14.5t35.5 0.5q25 -2 35.5 -6.5t25.5 -20.5q17 -15 21 -26t6 -38q2 -35 9 -63t13 -28t6 9t16 42q17 36 38.5 48.5t61 10t62 -16.5t43.5 -47q15 -25 18 -38t1 -51q-2 -54 -14 -67q-14 -15 -30 -12t-51 26l-43 27l-12 -16q-13 -15 -9 -36q4 -15 8 -57 q3 -38 -8 -51q-21 -22 -43 -1q-9 7 -15 4.5t-29 -24.5q-21 -21 -31 -26t-32 -5q-34 -1 -82 -10q-76 -16 -107 -14t-57 24q-14 10 -12.5 31t16.5 35q17 15 15 39q-1 17 -6 20.5t-29 5.5q-32 3 -49 14.5t-28 37.5q-8 18 -8.5 26t5.5 25q10 26 33 40t51 13q21 -2 25.5 0.5 t5.5 15.5q2 18 -5.5 27t-32.5 17q-53 17 -42 51q6 16 23.5 19.5t33.5 -8.5q16 -11 27.5 -8.5t29.5 21.5q17 17 32 21.5t25 -5.5q8 -8 29 10zM289 680q8 20 3 20q-2 0 -7 -6q-18 -23 -9 -28q3 -2 7 2.5t6 11.5zM586 610q-7 9 -13 13t-13 5.5t-20 1.5q-28 0 -38 -14 q-15 -24 -11 -31.5t32 -9.5q34 -2 54 -16q17 -13 22 -9q7 7 3 26.5t-16 33.5zM112 511q-2 9 -16 12.5t-19 -3.5q-5 -9 1 -15t19 -6q10 0 13 3t2 9zM364 444q-4 16 -9 16q-2 0 -7.5 -11.5t-11 -25.5t-9 -26.5t-2.5 -14.5q2 -2 9.5 3.5t15.5 14.5t12 16q6 12 2 28z" />
<glyph unicode="&#xce;" horiz-adv-x="561" d="M222 752q32 9 45.5 7t27.5 -20q35 -45 35 -100q0 -26 -18.5 -52.5t-42.5 -34.5q-44 -14 -3 -23q11 -3 18 -0.5t17 12.5q16 17 38 17q15 0 31.5 5t28.5 13t16 17q11 29 48 36q21 5 23 21q2 15 12 27t20 12q34 0 34 -56q0 -32 -12.5 -50t-34.5 -18q-21 0 -41 -23 q-19 -24 -62 -39l-42 -15l2 -23q2 -25 -11 -43l-14 -19l19 -14q20 -14 20 -27q0 -9 -15.5 -24t-25.5 -15q-7 0 -32 -24l-25 -24l-37 7q-37 7 -77 12q-41 5 -51 11q-10 5 -11 24.5t9 23.5q11 4 9.5 10t-12.5 6q-14 0 -30 16.5t-16 30.5q0 16 -15 30q-37 35 -37 85q0 46 44 57 q20 5 34 17q13 10 37.5 11.5t33.5 -7.5q10 -10 12 -2q0 7 -7 17q-12 13 -31 13q-24 0 -34.5 8t-10.5 28t16.5 34t55.5 25q43 13 62 20zM251 672q-29 18 -32 1q0 -11 16.5 -27.5t22.5 -12.5q9 6 6.5 18.5t-13.5 20.5zM258 349q0 7 -7 7q-8 0 1 -11l4 -3q2 0 2 7z" />
<glyph unicode="&#xcf;" horiz-adv-x="455" d="M182 761q9 10 34.5 12.5t43.5 -3.5q21 -8 27.5 -55t-10.5 -74q-8 -15 -16.5 -21.5t-24.5 -11.5q-12 -4 -12 -17q0 -26 22 -1q10 11 39 26q12 6 18.5 11t10 12t6.5 19q7 26 31 45t50 19q11 0 21.5 -4.5t17 -12t6.5 -15.5q0 -11 -11.5 -22.5t-24.5 -11.5q-22 0 -30 -25.5 t8 -45.5q14 -18 13 -47.5t-17 -44.5q-16 -16 -16 -35q0 -44 -48 -44q-8 0 -12.5 -0.5t-7 -1.5t-2.5 -3t1 -6q12 -29 14.5 -40t-0.5 -22q-3 -16 -27 -44q-24 -26 -44.5 -27t-43.5 23q-14 15 -23.5 19t-28.5 4q-26 0 -48.5 12.5t-35.5 33.5t-29 33q-34 27 2 53q19 15 20 35.5 t-17 24.5q-28 7 -28 36.5t27 47.5q20 12 63 11q31 -2 36.5 0t5.5 13q0 8 -3 12t-11.5 8t-27.5 10q-13 4 -20 6.5t-12.5 5t-7.5 6t-3 7t-1 9.5q-4 40 50 31q18 -3 22 -1t6 15q1 12 5 16t14 5q18 3 29 15zM224 695.5q0 6.5 -6.5 6.5t-6.5 -6.5t6.5 -6.5t6.5 6.5zM297 490 q0 6 -16.5 8t-20.5 -5q-5 -10 12 -12q22 -1 25 9zM146 479.5q0 6.5 -6.5 6.5t-6.5 -6.5t6.5 -6.5t6.5 6.5zM165 391q-2 2 -7 4t-10 2.5l-10 1t-8.5 -0.5t-3.5 -3q0 -6 16.5 -11t20.5 0q2 2 2.5 4t-0.5 3zM233 356q12 -10 13 0q1 7 -5 12q-11 10 -13 0q-1 -7 5 -12z" />
<glyph unicode="&#xd1;" horiz-adv-x="9" />
<glyph unicode="&#xd3;" horiz-adv-x="9" />
<glyph unicode="&#xd4;" horiz-adv-x="626" d="M217 735q34 35 48 41t46 0q14 -2 23 -8.5t21 -23.5q21 -29 18 -33l-11 -4q-11 -3 -12.5 -14t8.5 -15q10 -3 43 14q34 16 50 16q19 0 40.5 -10.5t36.5 -27.5q5 -7 8.5 -12.5t5.5 -12t2.5 -14t0.5 -19.5q0 -56 -15 -94q-3 -6 0.5 -9t15.5 -6q18 -3 44.5 -29t26.5 -40 q0 -15 -13 -23.5t-29 -6t-23.5 16.5t-14 11.5t-19.5 -22.5q-18 -28 -34 -46q-8 -10 -14 -14t-13.5 -6t-21.5 -2q-30 0 -54 -11q-36 -18 -85 -13.5t-82 28.5q-21 16 -27 16t-44 -34q-77 -68 -114 -54q-16 6 -18 29q-3 23 4 42t24 36t46 33q18 11 24.5 16t8.5 11t2 18 q0 24 13 46q13 21 12.5 30t-15.5 19q-17 12 -15 27t24 42q25 28 30 49q5 19 48 63zM284 702.5q0 5.5 -6 5.5t-10.5 -7t-1 -10.5t10.5 1.5t7 10.5zM472 635q-3 3 -7 5t-8 2.5t-8 0t-6 -2t-2 -4.5q0 -5 14 -18.5t20 -13.5q4 0 4.5 6t-1.5 13.5t-6 11.5zM264 603.5 q0 6.5 -16 6.5t-16 -6.5t16 -6.5t16 6.5zM332 388q-21 12 -33.5 12.5t-23.5 -10.5q-26 -30 19 -33q38 -3 59 8q3 1 3 3q0 5 -24 20z" />
<glyph unicode="&#xd6;" horiz-adv-x="436" d="M195 795q5 5 27 5q13 0 21 -5t19 -22q25 -36 34 -47q14 -17 21 -85t2 -138q-3 -66 5 -82.5t47 -22.5q36 -6 46 -12t10 -23q0 -18 -9.5 -26t-30.5 -8q-27 0 -79 18t-58 29q-7 12 -16 12q-18 0 1 -17q3 -1 5 -4q28 -21 6 -45q-19 -21 -69 -4q-52 19 -64 64q-8 28 -18 33 t-29 -10q-17 -15 -24 -15.5t-21 10.5q-13 11 -11 28t19 33q9 9 10 13.5t-4 11.5q-48 71 0 77q23 3 26.5 7.5t-4.5 22.5q-12 30 -8.5 46.5t25.5 36.5q26 24 26 37.5t9 21.5q9 7 12 28q0 6 0.5 8.5t2 5.5t3.5 4t6.5 2.5t9 2t14.5 1.5q33 4 38 8zM155 606q-3 9 -7.5 16.5 t-9.5 10.5t-8 0q-6 -7 -3.5 -21t9.5 -17q14 -6 18.5 -3.5t0.5 14.5zM257 578q0 44 -6 49q-9 5 -16 -16q-12 -37 -2 -67q1 -5 4 -9q16 -19 19 18q1 10 1 25zM176 495q-5 15 -39 6q-17 -4 -5 -15q5 -5 15 -9q16 -5 25 0.5t4 17.5zM336 647q8 10 24 8.5t27 -12.5 q8 -8 10.5 -19.5t2.5 -39.5q0 -47 10 -70t9 -32.5t-15 -18.5q-43 -28 -62 62l-8 52q-6 61 2 70z" />
<glyph unicode="&#xd9;" horiz-adv-x="534" d="M218 735q0 6 17 6q18 0 45 -29q34 -34 76 -52q18 -7 19 -1q0 8 -10 17q-11 9 -9.5 24t13.5 22q15 7 30.5 2t27.5 -22q14 -20 26 -20t28 -19q25 -29 22.5 -57t-29.5 -28q-29 0 -35 29q-2 13 -18 13q-12 0 -14.5 -5.5t-4.5 -35.5q-1 -36 6.5 -42.5t38.5 4.5q29 10 41 9.5 t24 -12t12.5 -33t-10.5 -33.5q-9 -10 -21 -11.5t-17 6.5q-4 6 -27 6t-36 -6q-12 -7 -12 -30.5t13 -48.5q24 -47 6 -80q-16 -29 -118 -34l-68 -4l-36 25q-35 25 -51 53q-11 19 -16 23t-17 1q-29 -7 -65 -30q-15 -10 -26 -2t-13 30q-2 21 13 35t45 19q19 4 22.5 7t-0.5 15 q-8 28 -3 128.5t15 113.5q11 13 34 3t23 -29q0 -15 7.5 -15t16.5 14q13 20 30 38q19 21 12 25q-7 5 -7 11zM339 388q-10 11 -17 12t-23 -5q-13 -5 -17 -11t-8 -27l-5 -22l28 2q28 2 41 20q9 13 9.5 17t-8.5 14z" />
<glyph unicode="&#xda;" horiz-adv-x="9" />
<glyph unicode="&#xdb;" horiz-adv-x="593" d="M185 774q20 20 48 11.5t48 -41.5q7 -12 12 -17.5t10 -7.5t10 0q13 4 37 7q15 2 22.5 -0.5t17.5 -13.5q16 -17 33 -17q15 0 29 -11q7 -6 15 -24.5t13.5 -41t5.5 -38.5q0 -25 17.5 -46.5t36.5 -21.5q11 0 21 -4.5t16.5 -11.5t6.5 -15q0 -13 -13 -23.5t-30 -10.5 q-45 0 -79 37q-20 22 -42 26l-20 4l4 -25q2 -14 -1.5 -37.5t-10.5 -46.5t-15 -34q-9 -15 -27 -19q-20 -5 -40 -13q-38 -18 -84.5 -15.5t-76.5 22.5q-24 16 -33 16q-14 0 -32 12.5t-29 29.5q-12 20 -26.5 58.5t-17.5 61.5q-5 29 13 38t38 -11q13 -14 18 -9q3 4 -5 15 q-22 32 -14 59q5 16 27.5 41t32.5 25q8 0 20 11t21.5 25.5t9.5 23.5q0 19 13 32zM238 666q-9 10 -16 10q-6 -1 -31 -23t-25 -26q0 -3 24 -3t41 15t7 27zM323 451q0 22 -5 22q-6 0 -40 -16q-33 -15 -33.5 -27t30.5 -14q26 -2 37 5.5t11 29.5zM194 386q-4 10 -16 9 q-6 -1 -6 -6q0 -4 4.5 -9t10 -7.5t7.5 0.5q3 3 0 13z" />
<glyph unicode="&#xdc;" horiz-adv-x="507" d="M194 759l-5 42l142 -4l6 -32q6 -30 25 -45q2 -2 17 -14t21 -16t19.5 -10t26.5 -8q29 -5 40.5 -18t11.5 -42q0 -30 -14.5 -45.5t-14.5 -33.5t13 -34q10 -10 12 -19.5t0 -34.5q-4 -32 -13.5 -42t-29.5 -2q-17 6 -41 7q-20 2 -23.5 -0.5t-4.5 -21.5q-2 -21 -11.5 -27.5 t-24.5 2.5q-13 9 -20 2q-10 -7 -28 -10q-21 -5 -33 -18q-12 -14 -33.5 -12.5t-32.5 18.5q-15 21 -71 79q-51 54 -63 72.5t-5 32.5q16 30 44 10q17 -10 18 -8q4 6 9.5 15.5t10 18.5t7.5 16.5t3 10.5q0 18 -43 -4q-34 -17 -58 -10.5t-37 36.5q-5 12 -4 20t9 21q12 22 44 43 q57 38 115 8q46 -23 46 -3q0 9 -10 9t-13.5 8.5t-6.5 42.5zM339 607q-2 6 -8 8.5t-11 0.5t-5 -8q0 -9 14 -15q12 -5 12 6q0 4 -2 8zM434 582q-2 12 -8 18q-7 7 -11 -8q-2 -10 1 -18q2 -7 7 -8t8.5 4t2.5 12zM400 497q0 8 -6 9t-10 -7q-2 -3 -2 -6.5t2 -6t4.5 -4t5.5 0.5 q6 5 6 14zM236 482q-2 3 -24 8q-15 3 -18 1.5t-2 -9.5q3 -12 21 -11q26 2 24 9q0 1 -1 2zM256 407.5q0 6.5 -6.5 6.5t-6.5 -6.5t6.5 -6.5t6.5 6.5z" />
<glyph unicode="&#xdf;" horiz-adv-x="9" />
<glyph unicode="&#xe0;" horiz-adv-x="437" d="M170 627q40 19 66 0q12 -10 32 -10q25 0 37 -12.5t12 -39.5q0 -30 -8 -39q-6 -6 -4 -7q2 0 9 3l35 13q9 4 14 7.5t8 8t5 12.5q3 16 16 20.5t24.5 -5t11.5 -26.5q-1 -14 -17.5 -35t-30.5 -26q-10 -4 -8 -9q2 -2 9 -12l1 -1q13 -18 13 -41q0 -24 10 -36q15 -19 8.5 -48.5 t-33.5 -60.5q-35 -42 -50 -12l-7 13l-17 -13q-25 -19 -61.5 -19t-62.5 21q-21 15 -38 20q-7 3 -10 5t-6 4.5t-4.5 10t-2.5 15.5t-4 26q-5 53 -11 58q-5 4 -27 -7q-21 -10 -33.5 -9.5t-24.5 10.5q-10 9 -11 21t9 34q16 39 59 55q11 3 17 7t10 11.5t9 23.5q10 28 22.5 44 t33.5 25zM261 532q-12 13 -20.5 12t-28.5 -19l-23 -19l40 4q40 5 41 6q3 3 -9 16zM180 484q0 9 -7 9q-6 0 -10.5 -10t-0.5 -14t11 1.5t7 13.5zM273 431q-4 12 -26 8t-22 -15q0 -10 22 -10q19 0 24.5 4t1.5 13zM178 384q5 5 -4 13q-7 4 -10 -1q-4 -6 2.5 -11t11.5 -1z M304 375.5q0 6.5 -6.5 6.5t-6.5 -6.5t6.5 -6.5t6.5 6.5zM240 344q-15 12 -21.5 14t-12.5 -6q-10 -11 -4 -20t23 -9q18 0 22 5.5t-7 15.5z" />
<glyph unicode="&#xe1;" horiz-adv-x="9" />
<glyph unicode="&#xe2;" horiz-adv-x="364" d="M140 625q48 9 59 -5q8 -10 28 -10q21 0 36 -10q11 -7 13 -15.5t0 -33.5q-3 -38 4 -38q3 0 10 13q8 13 25 11q12 -1 15 -6.5t5 -27.5q2 -27 -5 -55t-18 -41q-6 -7 -3.5 -11.5t18.5 -14.5q25 -16 27 -34q3 -26 -13 -34t-35 11q-15 13 -25 8q-6 -3 2 -11t6.5 -19.5 t-10.5 -18.5q-10 -9 -47 -10q-33 0 -76 -6q-28 -3 -37.5 -0.5t-30.5 17.5q-25 20 -55 47q-17 16 -20.5 24t-1.5 22q10 63 50 83q19 10 23 16.5t4 32.5q0 22 2.5 30t10.5 13q9 5 10.5 10.5t-1.5 21.5q-3 20 3 29t27 12zM150 375q-6 8 -18.5 6t-17.5 -12q-7 -13 -3.5 -20 t16.5 -7q10 0 19 12.5t4 20.5zM234 363q-9 14 -25 -9q-18 -25 -1 -25q5 0 12.5 7t11.5 15t2 12z" />
<glyph unicode="&#xe4;" horiz-adv-x="377" d="M283 652q7 7 21 2.5t30 -19.5q13 -13 18 -24.5t8 -34.5q4 -34 0 -45.5t-20 -11.5q-14 0 -21.5 14t-7.5 38q0 18 -17 33q-11 11 -15 26t4 22zM94 623q22 12 58 14q23 0 33 -3.5t22 -15.5q19 -20 19 -40q0 -14 3.5 -17t21.5 -3q28 0 38.5 -11.5t13.5 -45.5q2 -39 -5 -54 q-5 -9 -4 -14t9 -13.5t12.5 -9t14.5 5.5q20 12 32.5 -6t0.5 -41q-6 -11 -31 -13t-41 7q-13 9 -16.5 3t2.5 -24q8 -21 7.5 -45.5t-7.5 -31.5q-16 -11 -115 -18q-34 -2 -44.5 -1t-13.5 8q-5 10 -23 21q-19 9 -27 27q-10 19 -13.5 69.5t3.5 65.5q5 12 3 18t-16 20 q-21 22 -21 46q0 20 10 28.5t32 8.5q6 0 9 0.5t5 4t2.5 8t0.5 13.5q0 13 1.5 19t6.5 10t17 10zM160 567q12 16 -8 17q-18 1 -18 -6t9 -13t17 2zM251 488q-3 14 -14 17q-18 3 -5 -16l3 -4q9 -12 13 -11t3 14zM200 385q-9 5 -40 8q-19 2 -26.5 1t-9.5 -8q-5 -13 3 -18.5 t33 -5.5q34 0 43 13q4 6 -3 10zM160 303.5q0 6.5 -9.5 6.5t-9.5 -6.5t9.5 -6.5t9.5 6.5z" />
<glyph unicode="&#xe7;" horiz-adv-x="375" d="M112 683q77 36 95 -1q8 -17 28 -26q19 -8 53 -42q13 -15 19.5 -24t9.5 -17t3 -17q0 -23 7 -27q6 -4 6 -29t17 -36q16 -10 16 -33q0 -15 -6.5 -24t-28.5 -29q-29 -25 -73.5 -44t-82.5 -22q-21 -3 -27 -0.5t-10 13.5q-5 13 -17.5 18t-23.5 -1q-9 -6 -23 -6q-15 0 -35 39 t-27 79q-5 35 2.5 54t33.5 39q16 13 18 19t-3 31q-6 36 3 52t46 34zM238 592q-20 20 -27.5 18t-7.5 -28q0 -37 10 -35q3 0 6 5q4 6 16 6q16 0 17 9t-14 25zM301 420q-3 7 -17 24l-17 19l4 -29q5 -30 7.5 -32t12.5 6t10 12zM164 427q10 0 9 5q-2 7 -14 9q-9 0 -9 -7t14 -7z M107 418q-15 13 -21 15t-10 -4q-5 -8 7.5 -21t25.5 -13q14 0 14 3q-1 6 -16 20z" />
<glyph unicode="&#xe8;" horiz-adv-x="449" d="M186 664q0 4 10 5t21 -2t15 -8q8 -8 38 -9t39 7q7 7 22 4q10 -1 13 -6t3 -24q0 -12 1 -18.5t5 -11t13 -9.5q18 -11 37.5 -33.5t29.5 -43.5q10 -19 4 -45q-3 -16 -9 -22t-22 -12q-3 -1 -8 -3q-19 -6 -20.5 -10t14.5 -22q16 -19 17 -47t-14 -47q-7 -8 -12.5 -11.5t-16 -4.5 t-36.5 -1q-44 0 -89 12t-66 30q-26 22 -100 26q-10 0 -15.5 0.5t-9 3t-4.5 5.5t-2 9q-1 7 0.5 12t5.5 8.5t12 8.5q19 9 19 15.5t-19 16.5q-12 6 -24 20t-20 29.5t-8 27.5q0 14 12.5 26t27.5 12q10 0 22 13q20 21 69 2l27 -11l18 19q19 19 22.5 39.5t-8.5 31.5q-14 12 -14 18 zM366 524q-23 28 -33 28q-13 0 -5 -12q4 -6 12 -16q16 -18 16 -32t15 -11q8 1 11.5 3.5t3 8t-5.5 13t-14 18.5zM207 465q8 8 -3 19q-7 8 -9.5 7.5t-5.5 -7.5q-3 -8 0 -14.5t8 -7.5t10 3zM343 381q-12 18 -28 20t-24 -13q-7 -13 -23 -19q-15 -6 -15.5 -12.5t14.5 -10.5 q21 -5 46.5 -1.5t42.5 14.5q2 3 -13 22z" />
<glyph unicode="&#xe9;" horiz-adv-x="423" d="M116 597q9 7 75 43t76 36q16 0 29.5 -11t20 -27t2.5 -31q-5 -17 -21.5 -23t-41.5 1q-35 9 -34 -3q1 -7 16 -18q25 -17 45 -22q22 -7 33 -24t2 -32q-8 -14 -8 -31q0 -14 5 -16.5t37 -1.5q30 0 38.5 -2.5t15.5 -15.5q11 -17 4 -29t-19 -13.5t-22 8.5q-9 7 -14 6.5 t-22 -11.5q-19 -12 -21.5 -19.5t8.5 -23.5q10 -15 8 -29q-1 -11 -12 -12.5t-68 -0.5q-74 0 -131 6q-38 4 -45.5 7.5t-8.5 16.5q-3 17 5 27q14 17 -34 66q-26 27 -24 46q1 11 5 15.5t14 5.5q16 2 26 -8q18 -23 36 6q24 36 -22 36q-23 0 -35 12t-12 34q0 20 12 26.5t40 2.5 q34 -4 42 3zM172 558q0 7 -9 7q-3 0 -7.5 -2.5t-7.5 -6t-4.5 -7.5t0.5 -6q4 -4 16 2.5t12 12.5zM225 467q0 13 -17 3q-16 -12 -9 -20q3 -2 9.5 0.5t11.5 7.5t5 9zM140 401.5q0 6.5 -6.5 6.5t-6.5 -6.5t6.5 -6.5t6.5 6.5zM225 366q-29 9 -32 9q-4 0 -9 -17.5t-3 -24.5 q3 -8 30 -10t39 6q5 3 6.5 7t0 8t-5.5 8t-10.5 7.5t-15.5 6.5z" />
<glyph unicode="&#xea;" horiz-adv-x="481" d="M202 671q48 26 99 -8q18 -14 27 -24t12 -22t2 -33l-2 -33l34 -16q34 -16 38 -16q6 0 -6 60q-3 17 -6 22q-6 15 -4 30q1 10 5.5 12.5t18.5 2.5q20 -1 37 -13q11 -7 13.5 -12.5t-0.5 -18.5q-5 -21 -6 -54q0 -18 -2.5 -29t-7 -15.5t-12.5 -4.5q-4 0 -6 -1.5t-3.5 -8 t-1.5 -15.5v-28q0 -25 -1 -36t-4 -17t-11 -12q-27 -21 -69 -1q-26 12 -27 5q0 -8 23 -36q27 -32 25 -48q-2 -14 -17 -16t-29 10q-10 9 -62 15.5t-107 5.5q-26 0 -36 3.5t-29 20.5q-26 24 -33 50q-9 26 -23 32q-15 5 -15 24.5t17 33t42 13.5q26 0 26 6q0 5 -47 30 q-31 16 -38 23t-6 18q2 12 7 15t26 5q23 1 27 4.5t6 21.5q1 23 20 34q12 6 18 6t21 -8q14 -9 19 -8.5t15 8.5q14 14 33 23zM255 613q-10 16 -19 16.5t-23 -14.5q-17 -18 -13 -24.5t33 -6.5q35 0 43 -7.5t15 -0.5q8 8 -9 14q-16 6 -27 23zM300 479q0 8 -6 10.5t-15 -1.5 q-11 -4 -8.5 -13t15.5 -7q14 2 14 11zM367 482q-16 12 -20.5 9t-4.5 -24q0 -26 15 -36q14 -9 19.5 -5t5.5 24q0 23 -15 32zM108 392q11 -8 10 3q-3 17 -12 26q-4 0 -5 -6.5t1 -13.5t6 -9zM250 369q-15 42 -34 20q-9 -9 -9 -13.5t8 -16t19.5 -15.5t18.5 2q4 4 -3 23z" />
<glyph unicode="&#xeb;" horiz-adv-x="409" d="M148 650q16 4 47.5 2.5t65 -9t41.5 -15.5q10 -10 4 -32q-3 -14 -8.5 -18t-19.5 -5q-25 -3 -29.5 -9.5t9.5 -21.5q16 -17 41 -17q55 0 85 -44q34 -48 -3 -52q-17 -2 -35 21q-21 28 -32 23t-6 -41q4 -30 17 -33q14 -4 11 -22t-19 -21q-10 -3 -14 -8.5t-6 -21.5l-3 -26 l-56 -2q-117 -4 -135 34q-4 7 -13 15t-18 11q-22 9 -29.5 25t-5.5 50q1 38 -13 64q-24 48 -8 65q6 6 8 26q2 12 5.5 15.5t16.5 3.5q11 0 15.5 -3t5.5 -12q3 -15 -4 -23q-8 -10 0 -34q9 -26 20 -29q4 4 5 9q0 11 26 39q18 20 21 27t-2 21q-14 35 15 48zM206 589q8 8 0 11 q-6 2 -10 -3q-5 -8 -0.5 -11t10.5 3zM212 459q0 5 -12 9t-16 1q-9 -9 8 -14q19 -5 20 4zM178 393q-2 10 -12.5 13t-15.5 -4q-4 -8 1 -14t16 -6q13 0 11 11z" />
<glyph unicode="&#xee;" horiz-adv-x="416" d="M105 669q33 13 57 13q16 0 22 -4t16 -22q20 -34 25 -19q1 5 2 15q1 12 4.5 17t12.5 6q16 2 29 -11q30 -26 76 -33q19 -3 25 -6.5t7 -12.5q3 -16 -8 -27q-6 -7 -4 -12t17 -17q31 -25 18 -42q-12 -17 -43 -1l-13 9q-37 29 -37 9q0 -8 -24.5 -36t-32.5 -28q-10 0 -33 19 q-10 10 -16.5 14.5t-11 4.5t-6 -4.5t-1.5 -13.5q0 -8 3 -14t10 -12.5t21 -16.5l34 -24l21 11q19 11 32 6.5t15 -21.5q2 -15 -22 -30q-25 -16 -53 -46l-27 -31l-53 2q-54 2 -62 13q-7 11 0 23t23 15q18 5 18.5 23t-17.5 35q-12 13 -20 15.5t-25 0.5q-27 -4 -41 5 q-12 6 -22.5 27.5t-10.5 39.5q0 14 16 29t31 15q13 0 16 11.5t-7 27.5q-16 28 -7 46t46 32zM264 575q-7 9 -12 8.5t-20 -12.5q-12 -10 -12.5 -13t8.5 -10q25 -18 37 4q8 13 -1 23z" />
<glyph unicode="&#xef;" horiz-adv-x="267" d="M134 691q24 3 40.5 2t28 -12t19 -29t13.5 -49q10 -48 16 -59q7 -11 7 -35q0 -14 -6.5 -25t-26.5 -32q-19 -20 -29 -36.5t-18 -43.5q-15 -47 -20 -54q-12 -15 -58 -3t-57 33q-7 12 -7 43t6 44q4 7 2 14t-12 22q-17 22 -21 53t8 53q11 22 20 25q10 3 9.5 11.5t-10.5 12.5 t-8 22q2 13 7.5 16t30.5 4q35 2 42 11q8 10 24 12zM160 612q0 24 -6 27q-2 2 -5.5 -0.5t-7.5 -7t-7 -10.5t-5 -12.5t-2 -11.5q0 -10 6 -13.5t32 -8.5q19 -3 21 3q1 4 -13 8q-13 4 -13 26zM83 561q-11 12 -23 -13q-9 -20 -1 -24q8 -5 18 14q9 19 6 23zM119 395 q-1 18 -10 23.5t-20 -5.5q-19 -19 5 -41q14 -12 21 -5.5t4 28.5z" />
<glyph unicode="&#xf3;" horiz-adv-x="9" />
<glyph unicode="&#xf4;" horiz-adv-x="409" d="M127 678q9 4 47 4q26 0 37 -3.5t27 -16.5q24 -20 46 -26q13 -4 19 -2.5t13 10.5q10 14 29 11q12 -1 15.5 -5t5.5 -17q2 -20 -8 -29q-12 -9 -8.5 -17.5t24.5 -23.5l26 -18v-48q0 -32 -3.5 -44t-16.5 -31q-21 -27 -27 -27q-13 0 -1 -12l16 -11q12 -7 15.5 -12.5t2.5 -15.5 q-2 -12 -6.5 -15t-23.5 -2q-28 0 -41 12q-9 9 -16.5 8t-36.5 -14q-41 -18 -72 -15t-39 -6q-15 -18 -75 2q-32 11 -44 21.5t-10 25.5q1 8 3.5 11.5t8 5t16.5 2.5q23 2 33 9t7 18q0 2 -1 5.5l-2 7t-2 8t-1 8.5q-4 15 -13 17t-13 -12q-3 -14 -23 -14q-23 0 -25 13.5t16 49.5 q14 28 20.5 35t18.5 7q19 0 25.5 -6.5t18.5 6.5q8 9 8.5 13t-7.5 12q-16 18 -9.5 65.5t26.5 55.5zM212 588q-2 13 -29 5q-18 -5 -10 -11q5 -4 20 -3q21 3 19 9zM295 579q0 5 -16 5q-11 0 -15.5 -7t3.5 -14q3 -4 15.5 3.5t12.5 12.5zM348 522q-9 10 -16 10q-8 0 -19 -7.5 t-11 -12.5t17 -25t22 -20q8 0 10.5 23.5t-3.5 31.5zM259 465q-17 18 -40 20q-8 0 -9 -3q0 -7 56 -28l1 1q-1 3 -8 10zM195 416q5 7 -10 19q-13 9 -14 0q0 -7 10 -14.5t14 -4.5z" />
<glyph unicode="&#xf6;" horiz-adv-x="435" d="M141 718q31 8 57 9q14 1 19.5 -3t12.5 -19q6 -15 12 -19t26 -4q28 0 52 -16q23 -16 49 -16q15 0 22.5 -4t16.5 -16q12 -16 13.5 -32t-6.5 -55q-5 -23 -4.5 -34t8.5 -27q7 -14 7.5 -24t-3.5 -29q-6 -23 -16 -40.5t-33 -47.5q-18 -24 -35.5 -23.5t-48.5 25.5q-9 7 -16.5 13 t-12 9.5t-4.5 2.5q-1 -1 -10 -20q-8 -19 -26.5 -19t-24.5 6t-36 9q-21 1 -25 4.5t-4 18.5q0 21 -3.5 21t-37.5 -13t-48 -6q-17 9 -10.5 23.5t32.5 26.5q31 15 31 22t-26.5 32.5t-36.5 27.5q-10 1 -18 13q-9 14 1 24.5t34 11.5q27 3 27 8q0 10 -22 58q-7 14 -0.5 25.5 t23.5 13.5q9 1 12 4.5t2 11.5q-3 17 9 28.5t41 18.5zM167 623.5q0 6.5 -10 6.5t-10 -6.5t10 -6.5t10 6.5zM294 611q-10 4 -18 5.5t-12.5 0.5t-4.5 -5q0 -5 16 -21q17 -19 25 -43q3 -8 5.5 -13t5.5 -8.5t7 -4.5t10 -2q17 -1 25 6.5t13 29.5q3 15 0 17.5t-24 1.5 q-18 0 -23 2.5t-7 12.5q-2 14 -18 21zM344 386q14 15 11 22q-2 7 -17 -9t-11 -22q4 -5 17 9z" />
<glyph unicode="&#xf9;" horiz-adv-x="485" d="M126 667q16 9 48 9q23 0 37 -7t20.5 -22t6.5 -40q0 -36 3 -36q2 0 25 11q15 7 24 7.5t27 -4.5q27 -8 43 -24q11 -12 13 -20t-1 -33q-5 -37 -18 -65.5t-28 -34.5q-17 -6 -20 -26t10 -38q9 -12 10.5 -18.5t-3.5 -15.5t-10.5 -11t-18.5 0q-20 4 -29 17q-6 9 -10.5 8.5 t-21.5 -12.5q-30 -20 -67 -14t-55 34q-11 17 -29 17q-34 0 -34 33q0 17 -12 28t-21 38q-6 17 -5 26t11 29q14 30 43 50q25 17 28 25.5t-13 15.5q-15 6 -15 22q0 12 10.5 20t51.5 31zM162 548q-11 4 -13.5 3.5t-5.5 -6.5q-5 -7 0.5 -13.5t16.5 -6.5t12 9t-10 14zM319 514 q0 13 -8 17q-5 1 -6.5 -2.5t-0.5 -12.5q2 -17 9 -16q6 2 6 14zM245 486q-14 7 -15 6q-38 -12 -38 -20q0 -5 33 -5t32 9q-3 5 -12 10zM279 653q4 10 18 9.5t30 -10.5q15 -11 59 -16q26 -3 46.5 -11.5t32 -22t11.5 -28.5q0 -13 -4 -16.5t-21 -4.5q-15 -2 -20.5 0.5t-9.5 13.5 q-4 10 -12 13.5t-36 5.5q-26 1 -39 5t-28 16q-19 15 -25 25t-2 21z" />
<glyph unicode="&#xfa;" horiz-adv-x="9" />
<glyph unicode="&#xfb;" horiz-adv-x="475" d="M135 654q11 7 53.5 24t53.5 17q12 0 20.5 -7.5t8.5 -18.5q0 -14 8 -16t16 9q11 16 31 13.5t23 -19.5q4 -17 19 -37q7 -9 12.5 -13.5t12 -6.5t16.5 -2q24 0 42 -14q12 -9 14 -16.5t0 -26.5q-4 -30 -17 -48q-14 -18 -14 -47q0 -18 -4 -27.5t-12.5 -12.5t-22.5 0h-1 q-15 3 -18 -5t-3 -58q-1 -19 -3.5 -24t-11.5 -7q-14 -2 -37 9q-16 7 -23.5 6.5t-27.5 -9.5q-31 -14 -34 -20q-11 -17 -52 4q-22 11 -60 25q-39 13 -48 32q-8 18 -25 28q-36 24 -40.5 79t29.5 77q9 6 11 12t0 17q-4 19 4 29t26.5 10t28.5 -16q7 -10 11.5 -12t12.5 3 q10 5 10 8t-6 14q-10 14 -10.5 28t7.5 19zM212 533q0 15 -8 18t-18 -9q-5 -6 -4.5 -10.5t7.5 -12.5q11 -12 17 -8.5t6 22.5zM411 538q-6 7 -19 7.5t-22 -9.5t-1 -23q7 -14 12 -14q8 0 21 17t9 22zM310 482q0 8 -8 20q-6 8 -9 7.5t-11.5 -9.5t-8 -12t9.5 -8q27 -15 27 2z M87 497q-15 18 -27 -7q-7 -17 4 -39q7 -16 21 -25t21 -2q3 3 -5 34.5t-14 38.5zM281 397q-6 15 -14 24q-7 7 -6 2q0 -4 3 -15q7 -21 7 -24q0 -2 7 -2t3 15zM204 369q-2 9 -11 11q-4 2 -5.5 0t-0.5 -5q3 -9 11 -12q4 -1 6 0.5t0 5.5z" />
<glyph unicode="&#xfc;" horiz-adv-x="417" d="M252 691q13 5 42.5 0t42.5 -15q17 -12 18 -34.5t-15 -46.5q-17 -26 -14 -34q3 -9 18.5 -9.5t23.5 7.5q9 9 23.5 4.5t15.5 -17.5q3 -15 -21 -35q-23 -19 -23 -36t-27 -42q-36 -34 -17 -43l10 -2q8 0 18 -7.5t16.5 -18t4.5 -18.5q-2 -10 -29.5 -13t-122.5 -2 q-50 1 -68.5 3.5t-27.5 9.5t-17 25q-8 21 -22 21q-13 0 -42 28.5t-29 41.5q0 32 46 26q32 -4 30 6q-1 5 -13 9q-15 6 -35.5 36.5t-20.5 47.5q0 16 18 35q13 12 23 15.5t36 3.5q30 0 35 2t5 17q0 19 9 26q11 8 28.5 5t24.5 -14q8 -16 10.5 -16t17.5 14q18 16 28 20zM301 636 q-6 9 -20 6.5t-27 -15.5q-13 -14 -13 -23t13 -12q11 -2 17 14t20 19q14 4 10 11zM160 544q0 12 -11 22q-8 7 -12 -4q-3 -8 3.5 -19t13.5 -11q6 0 6 12zM266 493q8 0 -1 10q-3 3 -4 3q-3 0 -3 -6.5t8 -6.5zM173 429q9 2 -7 15q-12 10 -15 4t6 -14t16 -5zM173 381.5 q0 6.5 -6.5 6.5t-6.5 -6.5t6.5 -6.5t6.5 6.5z" />
<glyph unicode="&#x119;" d="M10 -69.5q0 6.5 500 6.5t500 -6.5t-500 -6.5t-500 6.5z" />
<glyph unicode="&#x2019;" horiz-adv-x="246" d="M156 619q24 5 34.5 1t26.5 -24q14 -17 17.5 -28t2.5 -29q-2 -20 -6 -27t-19 -14q-43 -21 -60 -1q-5 6 -4.5 12t8.5 20q12 23 7 27q-2 2 -5 1t-7.5 -5t-9 -10t-9.5 -13.5t-10 -16.5q-8 -14 -15 -18.5t-22 -5.5q-34 -3 -60 22t-9 45q8 10 20 9t22 -12q9 -10 15.5 -7 t33.5 32q35 38 49 42z" />
<glyph unicode="&#x201c;" horiz-adv-x="305" d="M124 664q8 4 50 1.5t50 -2.5q28 0 32 -11q3 -11 12 -21q7 -10 7 -75q0 -66 11 -85q13 -19 10 -36q-1 -10 -5.5 -14t-17.5 -5q-13 -2 -18.5 1t-9.5 13q-5 10 -40.5 36t-76.5 50q-7 4 -5 0q5 -14 41 -45q6 -6 12 -10q30 -23 30 -37q0 -12 -7.5 -20.5t-17.5 -8.5 q-16 0 -93.5 82t-77.5 99q0 13 10 21t22 4q9 -3 19 1t18 13.5t12 22.5q4 14 10.5 18.5t22.5 7.5zM216 554q-9 13 -24.5 16.5t-21.5 -5.5q-8 -13 29 -35q13 -8 17.5 -8t6.5 6q4 10 -7 26z" />
<glyph unicode="&#x201d;" horiz-adv-x="358" d="M204 697q5 5 34 5q18 0 27.5 -4t23.5 -18q15 -15 18.5 -24.5t3.5 -31.5q0 -35 16 -53q16 -19 20.5 -51.5t-6.5 -49.5q-21 -33 -51.5 -34t-58.5 30q-21 24 -25 33q-6 19 -32 -31q-4 -8 -9 -17q-26 -53 -47 -64.5t-54 8.5q-13 8 -17 14t-2 17q1 11 4.5 14.5t13.5 2.5 q18 -1 28 -5q3 -2 7.5 1.5t9.5 10t9.5 15.5t9 20t8 22.5t5 22.5t1.5 20q0 33 -5 37q-7 4 -34 -9q-25 -11 -49.5 -12.5t-33.5 7.5q-12 11 -8 32t21 35q12 11 22 14t30 2q21 -2 28 0.5t12 13.5q5 9 13 13t29 6q33 3 38 8zM291 537q-6 4 -17 8t-19 4t-9 -3q0 -22 17 -43t29 -13 q7 4 6 22.5t-7 24.5z" />
<glyph unicode="&#x2022;" d="M10 -69.5q0 6.5 500 6.5t500 -6.5t-500 -6.5t-500 6.5z" />
<glyph unicode="&#x20ac;" horiz-adv-x="521" d="M202 650q35 12 52.5 14.5t49.5 0.5q52 -4 75.5 -11t37.5 -25q17 -20 17 -51q0 -26 -6.5 -32.5t-53.5 -25.5q-16 -7 -17 -12.5t12 -26.5q14 -22 25 -17q12 5 40 7q19 0 25 3t8 13q3 9 7.5 12.5t15.5 3.5q13 0 16.5 -3.5t5.5 -17.5q2 -20 -4 -42l-6 -22l-47 -1 q-52 -1 -52 -8q0 -4 8 -10q11 -8 12 -30q1 -10 -0.5 -15.5t-6 -10.5t-14.5 -12q-24 -16 -67.5 -28.5t-77.5 -12.5q-25 0 -35.5 3.5t-26.5 18.5q-50 44 -61 44q-5 0 -3 -17q0 -20 -12.5 -25.5t-33.5 4.5q-14 7 -18.5 13t-4.5 17q0 20 6 24q12 7 -2 13l-20 3q-30 0 -35 19 t18 45q11 14 21.5 18.5t36.5 6.5q28 3 34 6t5 12q-2 9 -8.5 12t-29.5 5q-25 3 -30.5 6t-7.5 15q-2 18 26 48q23 24 43.5 35.5t82.5 33.5zM306 593q-8 4 -32.5 4t-33.5 -4q-21 -8 2 -13l32 -2q46 0 43 9q-1 3 -11 6zM264 349q0 7 -16 7t-16 -7t16 -7t16 7z" />
<glyph unicode="&#x25fc;" horiz-adv-x="605" d="M0 605h605v-605h-605v605z" />
</font>
</defs>
</svg>
