<?xml version="1.0" standalone="no"?>
<!DOCTYPE svg PUBLIC "-//W3C//DTD SVG 1.1//EN" "http://www.w3.org/Graphics/SVG/1.1/DTD/svg11.dtd" >
<svg xmlns="http://www.w3.org/2000/svg">
<metadata></metadata>
<defs>
<font id="zxx_camo_medmedium" horiz-adv-x="18" >
<font-face units-per-em="2048" ascent="1638" descent="-410" />
<missing-glyph horiz-adv-x="860" />
<glyph horiz-adv-x="0" />
<glyph unicode="&#xd;" horiz-adv-x="681" />
<glyph unicode=" "  horiz-adv-x="860" />
<glyph unicode="&#x09;" horiz-adv-x="860" />
<glyph unicode="&#xa0;" horiz-adv-x="860" />
<glyph unicode="!" horiz-adv-x="849" d="M20 958q-4 25 25 37.5t59 -0.5q55 -20 90 -8t95 72l78 76v104q0 101 10 111q8 10 37 4q10 0 16 -6.5t10 -20.5t6 -43t6.5 -43t10.5 -20.5t16 -8.5q29 -4 41 27q14 35 44 35t57 -37q29 -41 14 -59q-18 -20 -35 -21q-39 0 -4 -37q8 -8 20 -16q35 -27 59.5 -25t59.5 37 q31 33 58.5 39t35.5 -18q8 -16 -13 -54.5t-56 -66.5q-31 -27 -35 -53.5t-47 -53.5q-41 -27 -43 -49q0 -18 -19.5 -36.5t-31.5 -10.5q-10 6 -32 -12.5t-28 -18.5q-12 0 -67 -47q-41 -35 -115 -62.5t-113 -21.5q-31 2 -30 35q0 20 12 30.5t55 24.5t55.5 25.5t16.5 36.5 q4 39 39 67l37 29q-35 27 -68 53q-35 -41 -70 -84l-88 17q-160 27 -168 73zM444 995q-2 -100 23 -94q6 2 12 12q8 16 35 17q16 0 43 10t45.5 22.5t15.5 18.5q-3 11 -69 68q-70 59 -85 52t-20 -106z" />
<glyph unicode="&#x22;" horiz-adv-x="466" d="M27.5 1251.5q-19.5 30.5 9.5 83.5q2 6 9 21.5t10 20.5t11.5 14.5t20 13.5t27.5 8q59 10 80.5 8t42.5 -20q25 -23 38 -6q27 25 66 15.5t70 -44.5q37 -47 37 -59q0 -10 -29 -31t-63.5 -37t-53.5 -16q-37 0 -74 49q-23 27 -34 34t-21 -1q-18 -14 -22 -45q-2 -16 -12.5 -23.5 t-37.5 -9.5q-55 -6 -74.5 24.5z" />
<glyph unicode="#" horiz-adv-x="612" d="M20.5 1110q2.5 23 28.5 35q31 14 72 -6q41 -23 63 -23q12 0 23.5 15.5t17.5 41t6 54.5q0 39 27 47q45 10 6 43q-14 14 -18 43t8 41q14 14 37.5 7t46.5 -30q35 -37 92 -68.5t90 -31.5q25 0 29 -10.5t2 -67.5q-2 -49 2 -64.5t16 -17.5q27 -4 25 -37.5t-29 -40.5 q-23 -6 -24.5 -23.5t18.5 -33.5q23 -18 21 -45t-27 -33q-16 -4 -23.5 -11t-1 -13.5t22.5 -6.5q29 0 33 -8q8 -16 -7.5 -40.5t-37.5 -30.5q-20 -4 -26.5 -16.5t-6.5 -49.5q0 -55 -20.5 -71.5t-69.5 -0.5q-37 14 -101 25q-35 6 -50 3t-25 -17q-16 -23 -42 -17t-30 35 q-6 31 -39 43q-31 12 -38 33.5t11 44.5q23 25 23 41q0 14 31 26q33 12 41 64q10 49 -2 57q-18 16 -150 80q-27 12 -24.5 35zM276 897q2 -8 41 -12t77 -1t38 11q0 14 -80 14q-76 0 -76 -12zM304.5 1202.5q-9.5 -61.5 2.5 -74.5q14 -14 86 -10q74 4 77 26.5t-60 69.5 q-63 49 -80 50q-16 0 -25.5 -61.5zM311 1016q4 -8 21 -15q16 -4 41.5 -2t49 9.5t23.5 13.5q0 14 -67 14q-74 0 -68 -20zM326 781.5q0 -13.5 47 -13.5t47 13.5t-47 13.5t-47 -13.5z" />
<glyph unicode="$" horiz-adv-x="784" d="M55 1327q29 4 70 -49q41 -51 64.5 -59.5t50.5 18.5q14 14 63.5 35.5t61.5 50.5q16 33 44.5 33t34.5 -35q4 -31 60 -55q59 -27 88 -58q20 -25 33.5 -27.5t48.5 7.5t49 8t29 -16q41 -41 -50 -80q-51 -20 -159 -51q-14 -4 -27.5 -8.5t-20 -9.5t-6.5 -9q4 -10 51.5 -42 t71.5 -81q14 -31 15.5 -51.5t-9.5 -67.5q-14 -51 -26 -63t-66 -29q-41 -12 -58 -24.5t-22 -30.5q-8 -35 -39.5 -35t-39.5 35q-6 33 -48 45q-68 23 -106.5 72t-30.5 102q4 31 37 31q23 0 29 -8.5t8 -34.5q4 -35 29.5 -59.5t56.5 -24.5q10 0 15 6t7.5 23.5t2.5 56.5 q0 63 -5.5 77.5t-31.5 24.5q-43 16 -90 25q-41 4 -47.5 13t-8.5 56q-2 43 -15 65.5t-69 80.5q-133 131 -45 143zM311 1135q56 -43 56 20q0 37 -10.5 44t-39.5 -7q-53 -23 -6 -57zM446 815q0 -59 19 -59q25 0 27.5 15t-7.5 54q-16 51 -27.5 48t-11.5 -58zM451 1161 q2 -23 8 -30t22 -5q45 8 51 15.5t-12 27.5q-25 27 -49 27q-14 0 -19.5 -7t-0.5 -28z" />
<glyph unicode="%" horiz-adv-x="610" d="M20 817q0 45 123 45h72l72 88q80 98 55 97q-6 0 -25 -9q-45 -25 -100 -5t-74 67q-14 35 -22 113t0 92q8 12 26.5 11t32.5 -18q16 -20 60 -12q47 8 88 -15.5t55 -66.5t42 -48t56 28q18 18 42 24t36 -6q8 -6 -14 -45q-16 -29 -14.5 -40t30.5 -40q33 -33 31 -57.5t-39 -24.5 q-29 0 -61 31l-33 31l-51 -62q-68 -78 -46 -77q6 0 17 4q63 29 120.5 7t74 -72t-10.5 -114q-29 -57 -88 -65t-115 39q-35 31 -59.5 38t-114.5 9q-94 0 -130 11t-36 42zM236 1196q0 -31 47 -43q43 -10 43 12q-1 13 -17 31t-33.5 24.5t-28.5 0t-11 -24.5zM301 856q0 -12 16 4 q14 14 9 21q-8 10 -19 -7q-6 -6 -6 -18zM410 840q0 -18 45 -19q37 0 43.5 9.5t-13.5 29.5t-47.5 13t-27.5 -33z" />
<glyph unicode="&#x26;" horiz-adv-x="2086" d="M20 -142.5q0 13.5 1024 13.5t1024 -13.5t-1024 -13.5t-1024 13.5zM595 1077q5 101 17 115q14 18 56 18q45 0 58 16.5t1 57.5q-6 23 -6 44.5t5 42t16.5 37.5t25.5 29.5t33.5 19.5t42.5 7q39 0 69 -20q25 -18 42.5 -64.5t9.5 -74.5q-16 -59 -8 -66.5t92 -7.5h102l4 -72 q4 -51 -1 -62.5t-32 -21.5q-23 -8 -34 -23.5t-21 -58.5t-9 -61.5t13 -36.5q12 -20 11 -29.5t-19 -25.5q-20 -16 -26.5 -17.5t-18.5 17.5q-14 23 -33 22q-20 0 -43.5 -23.5t-23.5 -43.5q0 -29 -26 -38t-93 -5q-55 4 -72.5 11t-28.5 28q-14 35 4 61q10 16 8.5 26.5t-22.5 30.5 q-29 33 -53 33q-23 0 -33 16q-12 18 -7 119zM718 1022q5 -33 25 -57q25 -29 66 -41.5t61 6.5q18 14 19 63.5t-15 67.5q-12 12 -74.5 15t-74.5 -9t-7 -45zM798 1315q1 -37 21 -53q25 -20 45.5 -1t20.5 64q0 31 -6.5 43t-22.5 14q-27 2 -43 -14t-15 -53z" />
<glyph unicode="(" horiz-adv-x="503" d="M22.5 723.5q-4.5 17.5 2.5 52.5q6 63 26 98q20 41 21 168q0 137 29.5 202t111.5 102q55 27 88 22.5t33 -37.5q0 -20 -8.5 -28.5t-32.5 -12.5q-88 -18 -121 -82q-18 -33 -17 -91t19 -64q16 -4 70 43q84 78 104 26q23 -57 -94 -131q-76 -49 -88 -73q-14 -29 -13 -81.5 t17 -66.5q10 -8 96 -32.5t172 -43.5q49 -10 47 -41q-2 -33 -57 -45l-27 -2q-16 0 -58 -1t-60 -1q-63 -2 -103 27q-41 31 -74.5 31t-62.5 28q-16 16 -20.5 33.5z" />
<glyph unicode=")" horiz-adv-x="579" d="M23 1176q8 51 26.5 72.5t42.5 6.5q23 -16 23 -53q0 -18 4 -26.5t15 -12.5t42 -8q63 -10 90 -25q39 -20 37 15q0 16 -12 43q-18 41 -55 71.5t-70 30.5q-27 0 -38 17.5t-1 42.5q12 35 70.5 16.5t115.5 -74.5q29 -27 42.5 -53.5t23.5 -73.5q6 -31 13 -50t16.5 -31.5 t25.5 -22.5q31 -25 54.5 -71t13.5 -64q-10 -16 -33 -43q-25 -29 -29 -88l-4 -60l51 -6q47 -6 65.5 -27.5t-1.5 -46.5q-18 -20 -62.5 -19t-91.5 26l-51 24l-51 -41q-53 -41 -109 -43q-41 0 -49 5t-8 28q0 12 3 19.5t12.5 12.5t27.5 9q145 31 133 254q-2 63 -9 77.5t-48 32.5 q-55 27 -119 33q-47 4 -70.5 15.5t-32 31t-3.5 56.5z" />
<glyph unicode="*" horiz-adv-x="692" d="M31 969q-29 43 14 65q25 14 18 45q-6 25 8.5 44.5t14.5 37.5q0 29 29 68l28 37l35 -35q31 -29 43 -25t12 43q0 35 9.5 46.5t38.5 4.5q27 -2 30 -53q4 -51 13 -51q8 0 47 37q23 23 33 26t24 -10q37 -31 -8 -71q-45 -41 -6 -45q20 -2 69 2q59 6 82 2t58 -27 q43 -27 50 -47.5t-18 -40.5q-14 -10 -26.5 -9t-40.5 13q-41 23 -113 14q-72 -8 -74 -22q-2 -10 19 -29q45 -41 8 -74q-14 -10 -24.5 -7t-32.5 26q-55 43 -58 16q0 -10 15.5 -27.5t35 -35t37 -38t20.5 -34.5t-15 -27q-39 -27 -144 68q-41 37 -63.5 48t-57.5 11q-74 0 -110 54 zM86 1034q6 -10 27 -18q20 -6 36.5 0t16.5 22q0 10 -40 10.5t-40 -14.5z" />
<glyph unicode="+" horiz-adv-x="604" d="M24 736.5q9 23.5 44 29.5q18 2 68 66.5t57 97.5q2 4 -1.5 8t-11.5 7t-21.5 6t-35.5 5q-37 2 -50.5 6.5t-18.5 10.5t-5 22q0 25 12.5 30t67.5 11l82 6v72q0 43 -5 57.5t-18.5 24.5t-58.5 31q-33 14 -42 37.5t11 48.5q14 18 37 10q6 -2 45 -16.5t74 -28.5t41 -21 q8 -8 8 -92q0 -74 12 -78q6 -2 23 3q29 4 139 6q80 0 94.5 -4.5t14.5 -28.5q0 -16 -4 -22.5t-14.5 -9.5t-32.5 -5q-51 -6 -64 -37q-6 -14 -14 -21t-23.5 -10.5t-52.5 -5.5l-78 -4l-6 -86q-4 -66 -10 -77t-39 -15q-43 -4 -96 -57q-45 -43 -68 -48.5t-49 25.5q-20 23 -11 46.5 z" />
<glyph unicode="," horiz-adv-x="600" d="M23 727q2 6 6 12q14 23 86 19q53 -4 69.5 4t53.5 51q52 62 79 66q25 6 125.5 0.5t122.5 -11.5q20 -6 16.5 -33.5t-26.5 -39.5q-31 -14 -104 -11q-57 2 -67.5 -2t-12.5 -34q-4 -31 -22.5 -91.5t-35.5 -91.5q-12 -20 -61 -37.5t-84 -11.5q-37 6 -37 39t37 37 q27 4 53.5 24.5t22.5 34.5q-4 12 -97 17q-141 10 -124 59z" />
<glyph unicode="-" horiz-adv-x="583" d="M25.5 926.5q17.5 23.5 74.5 23.5q111 4 193 60q51 35 94 51q45 14 99.5 13t68.5 -19q23 -27 1.5 -46.5t-75.5 -25.5q-35 -4 -50 -10t-24.5 -19.5t-19.5 -40.5q-6 -25 -49 -24q-45 0 -70 -21q-31 -23 -112.5 -20.5t-112.5 26.5q-35 29 -17.5 52.5z" />
<glyph unicode="." horiz-adv-x="438" d="M24 948q-7 25 5 37q6 6 137 2q104 -6 151.5 -23.5t81.5 -64.5q18 -23 19.5 -34t-8.5 -23q-37 -43 -88 14q-23 23 -44.5 28t-91.5 5q-104 0 -135 20q-20 14 -27 39zM90 733q-4 52 4 72q6 18 70 14q35 -2 46 -5t15 -11t8 -31q2 -27 10.5 -41t25 -21.5t46.5 -11.5 q20 -2 29.5 -5t13.5 -10t4 -21q0 -23 -10 -29t-53 -8q-68 -4 -100 18q-37 25 -70 31q-12 2 -18.5 6t-10.5 10t-6 16.5t-4 26.5z" />
<glyph unicode="/" horiz-adv-x="497" d="M23 715q-12 33 36 47q8 2 19 4q37 6 74 74q43 74 38.5 131t-55.5 135q-53 74 29 121q31 18 41 19t24 -15q14 -14 15.5 -22.5t-8.5 -26.5q-18 -27 -3 -68q16 -39 33 -39q18 0 60 82q43 80 28 105q-12 23 -4.5 55t27.5 57q23 25 61 21q31 -2 36 -12.5t5 -55.5 q-2 -37 -20.5 -83t-75.5 -150q-90 -164 -102 -211q-8 -35 -70 -123q-41 -59 -59.5 -72.5t-53.5 -13.5q-63 0 -75 41z" />
<glyph unicode="0" horiz-adv-x="772" d="M35 1161q-46 47 63 88q55 23 77 22t36 -26q18 -29 -16.5 -52.5t-83.5 -39.5q-35 -8 -48.5 -7t-27.5 15zM117 864.5q-4 16.5 2 27.5t16 18.5t25.5 4t29.5 -17.5q41 -37 41 6q2 41 -34 115l-37 72l30 36q33 43 43 70q20 53 42 81t59 46q53 27 55 27l-1 8t-4 21.5t-9 27.5 q-12 58 4 78q25 27 47.5 13.5t38.5 -62.5q8 -25 35 -25q18 0 58 -16.5t74 -38t38 -33.5q8 -20 -8 -49q-14 -31 2 -117q10 -55 19 -72.5t32 -21.5q37 -8 38 -38t-38 -50q-37 -18 -38 -35.5t32 -52.5q35 -37 28 -58q-8 -18 -32.5 -20t-38.5 14q-14 12 -37 -20 q-31 -47 -78 -61.5t-145 -8.5q-190 12 -271 101q-14 14 -18 30.5zM307 1067q-6 -8 12 -37q16 -25 19.5 -55.5t-12.5 -38.5q-16 -10 -13.5 -42t19.5 -32q10 0 26.5 36t32 76t19.5 46q14 18 8 20q-10 8 -58.5 19.5t-52.5 7.5zM367 1239q0 -10 15 -27.5t36 -29.5 q31 -20 40 -34.5t9 -41.5q0 -33 7 -38t52 -3q43 4 52.5 10t13.5 33q4 37 -25 96l-28 60h-86q-57 0 -71.5 -4.5t-14.5 -20.5zM436.5 817q1.5 -10 26.5 -6q29 4 37 37q8 35 41 35q27 0 42 20t7 45q-8 20 -53 21q-41 0 -52.5 -9.5t-11.5 -44.5t-20 -61q-18 -27 -16.5 -37z" />
<glyph unicode="1" horiz-adv-x="774" d="M20 1083q0 10 6.5 23.5t15.5 24t19.5 18.5t18.5 8q16 0 74 43q39 27 100 74q31 23 77 29t58 -13q8 -12 33 -12q14 0 27.5 -14.5t26.5 -27.5t28 -13q25 0 41 -35q12 -25 7 -37t-42 -43q-41 -35 -42 -47t38 -31q29 -14 37 -47q10 -41 32.5 -37t45.5 49q53 98 110 45 q27 -23 25 -39t-35 -47q-39 -35 -62 -71q-12 -14 -22 -21.5t-25.5 -10.5t-48.5 -3q-74 0 -74 -8q0 -16 20.5 -41t45.5 -37q41 -20 41 -59t-25.5 -62t-54.5 -8q-25 14 -63.5 14t-55.5 -16q-14 -14 -45 0q-35 18 -110 20q-57 2 -68.5 7.5t-11.5 29.5q0 33 31 37q31 6 20 27 q-18 43 -8 60t57 26q61 10 82 2q25 -6 25 8q0 10 -17 26q-14 12 -19 46t-9 137q-2 78 -13 96q-23 33 -110 -31q-113 -84 -164 -65q-16 6 -17 26zM274 739q0 -10 20 -10t28 10q12 20 -15 21q-29 -2 -33 -21z" />
<glyph unicode="2" horiz-adv-x="858" d="M20 993q-4 31 21 38t65 -13q43 -20 115 -21.5t96 19.5q20 14 20.5 19t-20.5 20q-25 18 -59 12q-35 -6 -44 13.5t-1 86.5q6 49 17.5 71t43.5 54q51 49 52 60q0 14 16 29.5t30.5 14.5t37.5 -22q14 -12 28.5 -14t46.5 8q88 27 136.5 12.5t78.5 -73.5q23 -45 -12 -64 q-41 -18 -72 25q-18 29 -28 20q-10 -10 24 -51q35 -43 35 -88q0 -43 15 -78q14 -29 1.5 -52.5t-40.5 -23.5q-20 0 -56.5 -35.5t-46.5 -66.5q-10 -33 15 -31q18 2 34 29q8 16 19.5 20t36.5 -2q27 -4 46 4.5t60 44.5q27 23 43.5 33t27.5 12.5t19 -4.5q57 -39 -53 -135 q-70 -59 -87 -96t-3 -92q8 -35 7 -49.5t-15 -28.5q-41 -41 -82 59l-19 43h-348l-22 48q-23 45 -13.5 66.5t50.5 21.5q29 0 66.5 23.5t37.5 41.5q0 6 -113 8q-197 2 -207 84zM341 1201q-3 -11 24 -36t104.5 -21.5t77.5 25.5q0 21 -66 21q-76 2 -104 12q-33 10 -36 -1z M367 1035.5q0 -13.5 26.5 -13.5t26.5 13.5t-26.5 13.5t-26.5 -13.5zM412 846q-2 -18 16 -39q12 -12 36.5 -19.5t43 -4.5t18.5 16q0 23 -13.5 36t-29.5 5q-25 -6 -41 8q-25 20 -30 -2z" />
<glyph unicode="3" horiz-adv-x="784" d="M29 1186q-16 23 2 43q10 12 39.5 16t107.5 4q55 0 86 3t49.5 9.5t17.5 19t-7 32.5q-6 14 -8.5 25.5t2 19.5t9.5 14t17 10t21.5 6.5t28 4.5t28.5 2h31q12 2 20 2h70l86 -88q55 -61 69.5 -86t16.5 -58q0 -49 -15 -78q-10 -16 -7 -27t20 -30q47 -49 16 -82q-10 -12 -18 -78 q-4 -43 0 -56t26 -28q49 -33 21 -65q-31 -35 -86 -8q-2 0 -4 2q-31 16 -76 2q-43 -14 -145.5 -12t-133.5 18q-27 12 -54.5 36.5t-48 49.5t-24.5 43q-8 33 -12 111q-2 51 3 66t22 18q23 6 37 -10.5t22 -57.5q6 -31 16.5 -37t59.5 -8q68 -2 104 -12q25 -6 30 -3t3 19 q-4 25 -45 31q-25 4 -33 13t-10 38q-4 27 2 37t27 18q35 14 41 39q10 29 41 55q20 20 32.5 23.5t32.5 -6.5q33 -12 41 -56q8 -35 21.5 -32.5t13.5 38t-44 74.5t-83 39q-53 0 -55 -16l8 -19q18 -20 6 -39.5t-39 -13.5q-31 8 -61 -24q-59 -61 -97 -7q-10 18 -32.5 23.5 t-90.5 7.5q-106 2 -118 25zM428 795q6 -12 39 -12.5t33 12.5q-1 14 -13 14q-14 0 -30 6t-26.5 -2t-2.5 -18zM608.5 861q0.5 -13 14.5 -13q16 0 -2 22q-4 4 -9 4q-4 0 -3.5 -13z" />
<glyph unicode="4" horiz-adv-x="747" d="M20.5 889q2.5 37 53.5 67q47 27 47 48q0 18 33 40q29 18 23.5 32t-50.5 32q-41 16 -64.5 58t-19.5 87q2 27 9 35t26 8q8 0 14 -1t11.5 -4t9.5 -8t7 -13t7 -19q10 -29 25.5 -41t68.5 -28l80 -25l57 64q60 67 70 94q23 53 107 8q25 -12 32.5 -24.5t7.5 -41.5 q0 -39 23 -62.5t78 -41.5q33 -10 43 -20.5t10 -30t-8 -27.5t-29 -10q-33 -4 -80 16q-47 25 -49 17q-2 -4 -2 -15q0 -20 -26 -34q-16 -8 -21.5 -22.5t-3.5 -47.5l4 -57l74 -7q37 -4 51 -7t18.5 -10t4.5 -24q0 -23 -11.5 -28.5t-62.5 -9.5l-74 -7q-6 -61 -12 -120h-162 q0 66 -2 133l-88 2q-111 2 -86 -21l10 -8q18 -10 13 -50t-25 -50q-31 -16 -46.5 -6t-54.5 73q-43 70 -40.5 107zM254 999q0 -18 18 -24q14 -6 17 0q2 8 -15 20q-20 18 -20 4zM349 1097.5q1 -10.5 36 -5.5q20 2 29.5 11t11.5 32q6 59 -39 14q-6 -4 -10 -10q-29 -31 -28 -41.5 z" />
<glyph unicode="5" horiz-adv-x="882" d="M20 764q0 35 24 39t56 -27q37 -35 50 -35q20 0 39.5 34t19.5 69q0 43 22 59q16 8 15.5 14.5t-21.5 20.5q-20 12 -23 34.5t3 110.5q4 76 1 108t-18 52q-18 29 -20 62t16 49q18 20 36 15t28 -32q12 -33 22 -32q66 -4 153 -11.5t150.5 -15.5t67.5 -14q14 -14 0 -54 q-10 -27 -5 -38t40 -33q49 -35 61 -35t64 -43q29 -23 39 -39t8 -39q-8 -70 -96 -2q-70 51 -78 53q-14 -6 -19.5 -52t6 -90t33.5 -44q12 0 53 -51.5t79 -108.5t38 -72q0 -37 -39 -43t-51 31q-4 14 -38 61.5t-60 79.5q-10 12 -82 -36q-74 -47 -135 -62q-43 -8 -63.5 -4 t-67.5 31l-70 41l-39 -33q-66 -57 -131 -12q-68 45 -68 94zM291 1135q2 -12 22.5 -17.5t85.5 -9.5l103 -4l-8 35q-7 31 -15 49q-4 8 -92 8q-68 0 -86 -11t-10 -50zM449 799q0 -37 16 -53.5t37 -4.5q14 8 14 16.5t-14 33.5q-37 63 -49 32z" />
<glyph unicode="6" horiz-adv-x="714" d="M23 969q12 51 20 57q16 16 38.5 6t29.5 -37q4 -20 13 -26t34 -6q29 0 35 11t12 75q6 82 30.5 122.5t86.5 69.5q63 29 67 64q5 30 25 57q23 23 32 22.5t18 -14.5t15 -35.5t6 -42.5q0 -43 21 -43q20 0 66 -42t57 -72q14 -37 28 -232q14 -190 31 -209q14 -18 4 -32.5 t-41 -14.5t-47 35q-8 25 -14 28t-23 -12q-61 -57 -198 -43l-97 9l-28 59q-29 57 -39 94q-6 27 -19.5 34t-62.5 13q-66 8 -87.5 31t-12.5 74zM285 1083q2 -8 12 -8q6 0 28.5 5t47 11.5t46 12.5t25.5 8q0 2 -1 5t-4 8t-9 11.5t-12 12.5q-29 33 -41 32t-51 -32q-49 -43 -41 -66 zM289 864q-10 -33 8 -69q14 -27 39.5 -26t52.5 30q25 27 18.5 38t-45.5 11q-37 0 -45 14q-20 33 -28 2zM385 1012q-2 -6 6 -21.5t18.5 -27t14.5 -7.5q12 18 -6 52q-16 31 -33 4z" />
<glyph unicode="7" horiz-adv-x="733" d="M20 973q4 49 9.5 59t29.5 10q20 0 27.5 -9t11.5 -44q6 -51 34 -59t54 33q16 23 17.5 37t-8.5 40q-23 55 -25 83t14 55q23 33 62 32q39 0 59 39q20 35 12 47q-10 8 -100 9q-72 0 -92 12t-8 47q6 12 47 15t178 3l219 -4l4 -69q4 -63 21.5 -84t54.5 -2q33 18 53.5 8 t20.5 -41q0 -51 -45 -74.5t-92 2.5q-20 10 -35 2t-51 -51q-57 -68 -58 -74q0 -8 53 -24q43 -12 82 -44t39 -55q-4 -20 -47 -69q-33 -39 -44 -44t-32 7q-20 12 -32.5 7t-44.5 -42q-35 -39 -56.5 -47t-103.5 -14q-68 -4 -90.5 -2t-28.5 14q-6 16 9.5 60t35.5 67q16 18 -2 25 l-39 8q-68 10 -92.5 37.5t-20.5 93.5zM287 756q23 0 58.5 40.5t31.5 63.5q-12 57 -82 -26q-41 -72 -8 -78zM293 1026q8 -37 16 -41t27 14q12 14 13 22.5t-9 18.5q-23 29 -39 24t-8 -38zM437 1148q7 -7 21.5 2t14.5 21.5t-11 12.5t-21.5 -14.5t-3.5 -21.5z" />
<glyph unicode="8" horiz-adv-x="770" d="M29 975q18 23 36.5 19.5t49.5 -31.5q37 -35 45 -33q8 0 41 41l30 39l-28 32q-31 33 -37 86.5t16 98.5q23 47 6 78q-16 29 2 47q12 16 31 18t29 -12q8 -14 40 -14.5t40 14.5q10 16 48 13t52 -21q23 -23 59 -37q100 -45 111 -148q8 -61 25 -78q31 -23 13.5 -59.5 t-52.5 -23.5q-23 8 -23 -3q2 -18 41 -38q27 -14 59.5 -59.5t55.5 -59.5q37 -25 30.5 -53.5t-51.5 -32.5q-43 -4 -82 12q-25 10 -37 8t-28 -16q-27 -25 -25 -35t33 -18q43 -10 55 -23q16 -14 15.5 -39.5t-19.5 -34.5q-27 -10 -86 11.5t-75 46.5q-20 31 -74 30q-109 0 -172 76 q-37 41 -74 53q-29 10 -76 65.5t-24 80.5zM244 860q0 -23 28 -6q12 8 21 23q12 18 25.5 21t43.5 -1q33 -6 44.5 -1t21.5 28q16 32 16 38.5t-59 6.5q-39 0 -56.5 -8.5t-43.5 -40.5q-41 -51 -41 -60zM244 1149q0 -74 61 -74q31 0 38 15.5t-11 37.5q-23 25 -23 60t-16 35 q-14 0 -25.5 -9.5t-17.5 -26t-6 -38.5zM324 807q0 -20 11 -23.5t62 0.5q76 6 101 33q18 18 19 25.5t-11 17.5t-21.5 6t-25.5 -26q-16 -25 -26.5 -28t-35.5 7q-74 35 -73 -12zM498 1169q0 -18 20 0q6 7 6 9q0 6 -13 6t-13 -15z" />
<glyph unicode="9" horiz-adv-x="745" d="M20 1214q4 41 27 46.5t59 -21.5q68 -53 138 -4q36 27 61 33q109 27 199 -35t90 -162q0 -43 14.5 -54t46.5 5q29 16 50.5 3t21.5 -50q0 -25 -17.5 -43.5t-64.5 -40.5q-25 -12 -36 -27.5t-17 -46.5q-12 -53 -37 -86t-76 -57q-55 -27 -100 -24t-49 34q-4 20 -14.5 24.5 t-47.5 -1.5q-35 -4 -61.5 3t-34.5 21t2 33q14 23 43 29q74 12 -2 94q-35 39 -48 75.5t-17 112.5q-2 31 -11.5 41t-40.5 19q-49 10 -64.5 27.5t-13.5 51.5zM233 1042q0 -49 12.5 -56t51.5 24q23 18 45.5 22t75.5 2q137 -8 69 41q-8 6 -18 12q-41 27 -106.5 35t-98.5 -6 q-20 -8 -25.5 -21.5t-5.5 -52.5zM343 738q5 -9 36 -9q55 0 100 32.5t27 61.5q-6 10 -37 11q-61 -4 -84 -13.5t-33 -34.5q-14 -39 -9 -48zM580 1309q0 55 12 78.5t49 21.5q18 -4 22.5 -19.5t4.5 -78.5q0 -59 -4.5 -76.5t-20.5 -22.5q-16 -2 -27.5 2.5t-19.5 16.5t-12 31.5 t-4 46.5z" />
<glyph unicode=":" horiz-adv-x="464" d="M26.5 1201q-16.5 32 8.5 59q27 25 114 -8t87 -68q0 -33 -23 -43.5t-57 8.5q-37 20 -72 20q-41 0 -57.5 32zM190 1374q16 16 41 6t50 -41q23 -31 40 -40t58 -11l63 -4v-147l-71 -4q-45 -4 -59.5 1t-22.5 25q-12 29 -62 98q-64 90 -37 117zM236 715q-29 51 57 184 q31 49 48 65.5t34 14.5q27 -4 31 -37q6 -31 26 -47q18 -12 14 -80l-4 -67l-55 -5q-57 -4 -78 -30q-47 -47 -73 2z" />
<glyph unicode=";" horiz-adv-x="540" d="M27 1143q12 20 37.5 6t76.5 -74q49 -53 78 -70.5t105 -41.5q178 -55 196 -142q12 -68 -26 -88q-37 -20 -62 33q-4 8 -6 16q-12 35 -40 59.5t-46 14.5q-12 -8 -12 -61q0 -51 -17 -62q-12 -6 -39 -63q-39 -96 -147 -86q-29 2 -37 9t-8 28.5t7 28.5t36 9q41 4 56.5 22.5 t0.5 45.5q-12 25 -13 84t13 72q14 14 -67 100q-113 121 -86 160zM168 1196q-4 58 4 78q6 18 78 14l69 -4l5 -53q4 -53 34 -86q29 -31 15 -51q-16 -27 -32.5 -27t-49.5 29q-41 33 -78 37q-14 2 -21.5 4t-12.5 9t-7 17.5t-4 32.5z" />
<glyph unicode="&#x3c;" horiz-adv-x="823" d="M20 648q-2 34 29 79q35 49 35 72t33 39t114 123q53 66 84 93t82 50q72 33 92.5 36t38.5 -18q35 -47 -82 -94q-18 -6 -37.5 -18.5t-36 -24.5t-27.5 -25.5t-16 -22.5t-1 -15q4 -4 149 47q160 59 176 49q6 -6 4 -31q-4 -27 -35.5 -43t-179.5 -67q-209 -76 -211 -86 q0 -6 39 -24.5t84 -35t62 -16.5q14 0 39 49q31 57 56.5 63.5t111.5 -24.5q111 -41 148.5 -66.5t33.5 -58.5q-8 -72 -96 -12q-33 23 -99.5 48t-85.5 -1q-10 -18 7.5 -34.5t68.5 -35.5q31 -10 43 -21.5t14 -31.5q4 -33 -15 -35t-87 23q-66 25 -94 12q-20 -10 -31.5 -6 t-30.5 26q-18 25 -109 65t-128 40q-4 0 -10.5 -4t-12.5 -11.5t-13 -17.5t-13 -23q-31 -53 -60 -49q-31 4 -33 38z" />
<glyph unicode="=" horiz-adv-x="622" d="M20.5 1130.5q2.5 26.5 24.5 34.5q35 10 50.5 25.5t27.5 52.5q17 52 33 70t63 14q16 0 26.5 -4t23 -13.5t22.5 -22.5t28 -40q53 -78 84 -78t40.5 -21.5t-7.5 -47.5q-16 -27 -6 -37t41 2q35 12 74 3t51 -34q16 -29 -2.5 -48t-58.5 -11q-41 8 -66 -12q-29 -18 -164 -21 q-102 0 -121.5 -4t-31.5 -33q-20 -41 -43 -38t-54 51q-31 47 -34 67.5t20 36.5q18 18 18 41t-18 33q-23 8 -20.5 34.5zM160 1069q-10 -27 8 -37t74 -10q84 0 84 27q-3 8 -11 20q-18 20 -83.5 20.5t-71.5 -20.5zM207 1198q0 -29 22 -29q21 0 17 23q-6 31 -25 29 q-14 -2 -14 -23z" />
<glyph unicode="&#x3e;" horiz-adv-x="825" d="M20 792.5q-2 45.5 29 106.5q33 63 27 109q-6 29 -1.5 35t27.5 6q20 0 36 11t31 24.5t30 19.5q27 10 37 10q16 2 46.5 -17.5t61.5 -49.5q39 -37 90 -37q47 0 102.5 -26t69.5 -54q10 -16 27.5 -21.5t66.5 -5.5q76 0 97 -22q20 -27 0.5 -46.5t-70.5 -23.5q-59 -4 -90 -31 q-37 -25 -51 -24q-18 0 -18.5 -13.5t12.5 -13.5q10 0 28 -29q16 -29 -6 -49q-14 -16 -31.5 -14t-78.5 22l-93 29l-143 -53q-162 -59 -176 -49q-8 6 -5 30.5t24.5 38t105.5 43.5q127 43 149 72q20 29 56 21q45 -10 86 12q14 10 10 18q-16 12 -170 66l-158 53l-18 -29 q-39 -59 -68 -147q-8 -25 -37 -21q-33 4 -35 49.5z" />
<glyph unicode="?" horiz-adv-x="598" d="M22.5 870q-10.5 31 14.5 39q23 8 92 -12q68 -18 81 -6t-1 78q-14 68 -8 88q2 6 1 9t-8.5 6t-19.5 3h-33q-43 0 -59 6t-31 27q-20 31 -8 59.5t51 36.5q33 10 105 80l69 72l105 -2q82 -2 101.5 -13.5t-1.5 -48.5q-16 -31 1.5 -55.5t55.5 -28.5q27 -2 36 -10t12 -29 q4 -33 -16.5 -51t-63.5 -20q-27 -2 -35 -8.5t-6 -20.5q14 -76 -11.5 -124t-83.5 -54q-49 -4 -49 -13.5t47 -39.5q41 -25 61.5 -19t33.5 47q16 57 57 72q27 10 37 -16q6 -16 -28 -91t-48 -75t-8 -23q10 -25 -6.5 -42t-41 -15t-36.5 24q-16 29 -51 29q-37 0 -60 23 q-16 14 -24 14t-23 -14q-23 -18 -63 -19q-39 2 -47 35q-8 31 -47 53q-33 18 -43.5 49zM277 1008.5q8 -25.5 29.5 -32.5t41.5 9q16 16 16 24t-16 31q-18 31 -31.5 34t-29.5 -17q-18 -23 -10 -48.5zM326 1170.5q0 -13.5 20.5 -13.5t20.5 13.5t-20.5 13.5t-20.5 -13.5z" />
<glyph unicode="@" horiz-adv-x="718" d="M27 864q-16 27 5 46.5t68 19.5q51 0 56 10q6 8 10 102l6 95l-59 14q-39 10 -50.5 18.5t-11.5 28.5q0 23 13.5 28t80.5 9q92 4 115 20q14 14 59 41q43 23 110 17t110 -35q59 -43 137 -174q29 -41 22.5 -74t-53.5 -76q-33 -31 -42 -48t-7 -46q2 -27 13.5 -40t41.5 -29 q49 -20 49 -50q0 -31 -26.5 -35t-91.5 15q-76 20 -91.5 18t-19.5 -34q-2 -20 -11 -29.5t-30 -11.5q-47 -6 -106.5 29.5t-92.5 86.5q-16 27 -23 36t-21.5 16.5t-25.5 8.5t-44 1q-41 0 -61.5 5t-28.5 17zM246 1037q0 -54 14 -54q12 0 31 43q18 41 45 70q45 37 6 47 q-43 10 -74 -15q-6 -4 -8 -10q-14 -27 -14 -81zM279 877q-16 -31 38 -83.5t103 -52.5q41 0 10 31q-8 9 -20 21q-121 100 -131 84zM381 913q0 -10 33 -18q27 -8 50 -2t23 22q0 14 -53 15q-55 0 -53 -17zM393 1035.5q0 -13.5 40 -13.5t40 13.5t-40 13.5t-40 -13.5zM514 1118 q0 -14 20.5 -29.5t28.5 -9.5q10 14 -20 41q-29 23 -29 -2z" />
<glyph unicode="A" horiz-adv-x="634" d="M20 717q0 25 23 34t45 -8q39 -23 37 -8q0 4 -2 15q-10 20 4 38q5 7 5 17q0 33 -56 102q-27 35 -27 70q0 7 1 14q7 41 54 70q49 33 50 55q0 25 10 31q8 10 28 10q4 0 10 -1q28 -3 44 -15q14 -14 35 2q25 20 41 5t38 -79q20 -55 29.5 -66.5t36.5 -9.5q25 2 36 -7t27 -50 q31 -63 68 -76q41 -14 55 -40q5 -10 5 -21q0 -15 -13 -29q-14 -14 -27.5 -14t-54.5 14q-20 6 -30.5 10t-17.5 4t-9 -3t-2 -9q0 -33 19.5 -52.5t52.5 -19.5q57 0 69 -38q3 -7 3 -14q0 -24 -36 -36l-14 -2q-29 -4 -29 -37t-26 -33v-1q-25 0 -45 30q-23 31 -78 47 q-39 12 -52.5 10.5t-31.5 -24.5q-52 -60 -139 -60q-11 0 -23 1q-35 4 -44 10t-9 29q-2 35 -31 73q-29 37 -29 62zM168 975q2 -2 2 -4q6 -20 20 -15q5 3 7 9q0 12 -19 14q-10 4 -10 -4zM281 930q-1 -2 -1 -5t2 -5q3 -4 11 -5q21 1 29 15q6 12 -13 12q-20 0 -28 -12zM310 742 q5 -10 20.5 -18.5t31.5 -8.5q33 0 33 14q-4 14 -34.5 26.5t-36 12.5t-13.5 -8q-3 -4 -3 -9q0 -4 2 -9zM373 1135q8 19 23 19h2q16 -1 65 -24q66 -34 65 -61q0 -11 -10 -22q-10 -6 -25 -6q-14 0 -31 5q-36 11 -66 40q-24 23 -25 40q0 5 2 9z" />
<glyph unicode="B" horiz-adv-x="858" d="M20 1075q0 20 8.5 28.5t28.5 10.5q37 4 37 30t37 44q39 20 79 20h18q50 -6 200 -47q10 -4 90 -26q14 -4 14 -77v-20q-2 -59 -9 -83.5t-27.5 -46t-22.5 -31t10 -21.5t24.5 -12t47.5 12q47 16 76 18q18 0 59 41q31 35 75 41q7 1 14 0q33 0 52 -22q9 -10 9 -22q0 -9 -5 -19 q-12 -23 -40 -29q-25 -4 -58 -35q-35 -29 -108 -49q-74 -16 -84 -26q-12 -12 -17 -86q-4 -84 -18 -84q-6 0 -23 8q-9 5 -22 5q-19 0 -45 -11q-46 -17 -168 -17h-14l-138 4l-4 72q-2 47 -8 61.5t-29 22.5q-33 12 -32 35q0 25 18 76t33 65q16 16 16 60q0 16 -3 27.5t-11 18.5 t-23 15q-37 16 -37 49zM180 688q-4 -7 -4 -13q0 -11 10 -17q16 -12 56 -11q59 0 59 19q0 12 -27 22q-38 14 -61.5 14t-32.5 -14zM315 942q-2 -4 -2 -7q0 -9 15 -13q29 -12 30 2q4 20 -18 28q-14 6 -25 -10zM332 780l45 -39q45 -37 63 -41q10 0 14 18q2 9 2 20q0 10 -2 22 q-4 23 -14 33q-14 14 -29.5 14t-48.5 -12zM403 1059v-6q0 -28 19 -39q10 -4 17 -4q9 0 13 6q2 4 2 8q0 8 -8 20q-14 25 -28 29q-2 1 -4 1q-9 0 -11 -15z" />
<glyph unicode="C" horiz-adv-x="636" d="M20 1159q6 24 32 24q14 0 34 -7l10 -5q23 -10 40.5 -3t68.5 46q61 50 93 58q9 2 18 1q25 0 53 -16q31 -18 59 -20q23 0 60.5 -42t54.5 -85q12 -34 12 -67v-10q-2 -38 -20 -48q-14 -8 -14.5 -15t9.5 -26q20 -31 -1 -45t-89 -16q-78 -2 -116 -21q-25 -12 -30 -25.5 t-3 -54.5q4 -43 10 -52t39 -13q33 -2 38 2t-3 24q-10 33 -13 66q0 31 24 37t48 -17q16 -14 22.5 -14t18.5 14q16 19 36 19q31 0 73 -43q35 -39 35 -70q0 -26 -29 -30q-31 -6 -41 -19.5t4 -26.5q16 -16 16 -40q0 -27 -20 -64q-8 -18 -12.5 -24.5t-19.5 -11.5t-33.5 -5h-63.5 q-72 0 -94.5 5t-44.5 30q-30 30 -30 52q0 4 1 7t1 6q0 24 -37 52q-42 32 -83 39q-25 2 -33 12t-16 51q-4 23 -4 39q0 26 10 37q14 18 0 35q-16 16 -15 38.5t19 38.5q20 16 21 60q0 18 -4.5 29.5t-13.5 21.5t-29 20q-49 29 -49 63q0 5 1 9zM199 1057q-3 -10 -3 -17 q0 -16 15 -16q29 2 53 31q6 6 4 8q-8 13 -29 13h-7q-26 -3 -33 -19zM207 948q6 -6 8 -6q6 0 6 13.5t-14 13.5q-9 0 -9 -5.5t9 -15.5zM346 973q4 -2 10 0t13.5 9t12.5 15.5t9 17.5t4 17q0 16 -10 17q-15 0 -31 -34q-11 -23 -11 -34q0 -5 3 -8zM358 602q20 -8 52 -8q16 0 26 1 t16.5 4t8.5 8.5t2 13.5q1 23 -25 25q-3 0 -8 1q-24 0 -59 -14q-25 -9 -25 -19q0 -6 12 -12z" />
<glyph unicode="D" horiz-adv-x="681" d="M20 1106q6 35 80 37q47 0 57.5 6t14.5 31q2 27 13.5 33t60.5 8q47 4 58 9t11 25t12.5 41t28.5 21q14 0 57.5 -35t69.5 -68q31 -35 42.5 -40t31.5 6q31 20 44 5.5t-5 -46.5q-10 -23 -10 -41.5t10 -57.5q18 -63 43 -96q25 -31 25 -76t-23 -59q-23 -10 -72 -102 q-33 -61 -49 -78t-51 -25q-35 -7 -109 -7q-30 0 -65 1l-119 2l-4 64q-4 61 -31 84q-27 27 -26 45q0 20 -29 51q-18 20 -21.5 30.5t7.5 24.5q10 16 23.5 19.5t45.5 -5.5q6 0 10.5 2.5t6.5 9.5t3 19t1 31v65l-56 13q-84 16 -86 53zM254 1023q0 -22 22 -52q18 -25 35 -33t47 -8 q51 0 51 4t-53 59q-51 55 -73 56q-29 0 -29 -26zM334 782q23 0 42 13.5t19 29.5q0 6 -11 8.5t-27.5 -2t-30.5 -10.5q-23 -13 -23 -25q0 -14 31 -14zM416 1075q7 -12 16 -12q2 -1 6 1q12 6 13 26q0 26 -12 26h-1q-14 0 -21 -14q-4 -8 -4 -15q0 -6 3 -12z" />
<glyph unicode="E" horiz-adv-x="854" d="M20 739q0 54 88 54h15q11 -1 19 -1q49 0 49 19q0 22 -58 88q-56 64 -56 95q0 21 27 26q25 4 50 -16q35 -31 41 8q1 8 1 15q0 32 -22 48q-16 14 -18 40t14 34q12 12 25 43q12 31 55 31q45 0 67 22q17 17 31 17q15 0 62 -17q60 -22 147 -22h8q39 0 59.5 3t36 10t31.5 21 q30 25 58 25q34 0 65 -37q20 -24 20 -55q-1 -8 -1 -14q-6 -40 -33 -43q-31 -4 -45 24l-15 31l-30 -35q-27 -35 -74 -59q-51 -29 -51 -47q0 -11 18 -11q25 0 68 -35q45 -34 44 -85q0 -68 -79 -166q-18 -25 -27.5 -37.5t-11 -21.5t4 -13t22.5 -8q29 -6 22 -39q-2 -10 -7 -17.5 t-15.5 -11.5t-28.5 -8q-47 -8 -43 -25q4 -20 -19.5 -44.5t-48.5 -24.5t-94 37q-70 35 -129 51q-37 8 -50 19t-24 40q-8 25 -15 33t-18.5 11t-41.5 3q-35 2 -54.5 6.5t-29 13.5t-9.5 25zM276 728q5 -44 21 -50q9 -3 17 -3q26 -1 44 29q11 18 10 35q0 19 -14 37 q-12 14 -35.5 18.5t-33.5 -8.5q-10 -10 -10 -37q0 -9 1 -21zM456 689q8 -15 42 -15q25 0 28.5 8t-6.5 43q-6 29 -17 29t-32 -25q-17 -19 -18 -32q1 -4 3 -8zM496 1104q8 -14 21 -14t5 14q-6 12 -20 12q-8 0 -8 -5q0 -3 2 -7zM516 932q0 -10 9.5 -24.5t21.5 -23.5q8 -6 13 -6 q2 0 3 1q4 3 4 9q0 13 -20 40q-16 16 -23 16t-8 -12z" />
<glyph unicode="F" horiz-adv-x="724" d="M60 752q36 17 36 50v4q-2 36 -43 79q-27 27 -31 39t7 24q18 20 34 21q20 0 19 10q0 14 -29 20q-33 4 -33 33v4q2 33 35 39q33 8 41 47q4 29 16.5 36t69.5 11q82 8 115 31t76 23t73 -25q36 -28 65 -28q28 0 50 26l27 33l55 -35q59 -40 63 -70q0 -2 1 -6q0 -28 -45 -69 q-49 -45 -68 -84q-14 -33 -34.5 -43.5t-41.5 8.5q-29 20 -43 -4q-12 -29 23 -52q29 -14 29 -46q-1 -4 -1 -9q-4 -39 -41 -57q-41 -23 -41 -29q0 -10 37 -47q20 -25 23.5 -35t-6.5 -22q-18 -20 -33.5 -20.5t-34.5 -20.5q-16 -20 -29.5 -18.5t-25.5 30.5q-10 23 -6 36t28 38 l37 39l-37 16q-19 8 -38 8q-16 0 -33 -6q-16 -6 -22.5 -11t-8.5 -18.5t0 -35.5q6 -58 6 -84q0 -10 -1 -16q-3 -20 -24 -23q-27 -4 -53 24q-23 25 -33 25t-18 -27q-5 -24 -30 -24q-3 1 -7 1q-31 4 -37 31t-45 72q-33 38 -33 62q0 26 40 45zM192 940q12 -6 44 -8q13 -1 23 -1 q49 0 50 23q0 8 -10 19q-16 14 -16 39q0 21 -18 21q-17 0 -52 -19t-35 -46q-1 -20 14 -28zM297 1073q4 -8 41 -12q21 -3 41 -3q15 0 31 2q34 5 34 17.5t-73 12.5q-78 0 -74 -17zM485 1073q0 -10 23 -10q29 -1 51 19q16 14 16 29q0 5 -2 11q-8 22 -20 22q-3 0 -6 -1 q-8 -4 -8 -21q0 -20 -28 -28.5t-26 -20.5z" />
<glyph unicode="G" horiz-adv-x="729" d="M24 842q11 18 42 22q29 4 34.5 17.5t12.5 87.5q6 100 16 127.5t-16 38.5q-29 6 -37 27.5t10 41.5q12 15 46 15q11 0 26 -2q20 -4 125.5 -7.5t134.5 -17.5q28 -15 71 -15q52 0 127 23q37 10 50.5 9t29.5 -17q12 -12 14 -24q1 -2 1 -5q0 -8 -7 -15q-8 -9 -20 -17.5 t-28.5 -15.5t-32 -13t-29.5 -12.5t-23 -14.5q-18 -14 -24 -73q-3 -25 -3 -52q0 -36 5 -76q6 -43 13 -57t22 -12q6 1 11 1q24 0 49 -20q30 -24 26 -49q-2 -18 -14.5 -24t-49.5 -8q-59 -4 -110 -46q-68 -53 -128 -62q-14 -2 -30 -2q-49 0 -113 21q-41 12 -57 27.5t-33 54.5 q-27 59 -57 70q-33 12 -48 34q-10 14 -10 26q0 7 4 14zM68 556q-3 8 -3 16q0 11 5 22q14 25 38.5 24.5t96.5 -24.5q82 -31 121 -37q29 -6 37 -14t8 -28.5t-9.5 -30t-39.5 -16.5q-20 -5 -36 -5q-7 0 -12 1q-20 3 -49 21q-49 29 -86 29q-27 0 -46 12.5t-25 29.5zM190 963 q0 -39 9.5 -44.5t38.5 15.5q18 14 19 20.5t-17 26.5q-27 31 -38.5 27t-11.5 -45zM291 1116q-5 -8 -5 -14q0 -18 38 -19l32 2q20 4 33.5 10.5t11.5 12.5q-6 16 -53 19q-8 1 -15 1q-34 0 -42 -12zM311 690q0 -14 37 -14t58 12q12 8 9.5 15.5t-22.5 25.5q-33 27 -43 27 q-6 0 -15 -12.5t-16.5 -28t-7.5 -25.5zM432 827q2 -2 2 -4q5 -15 15 -15q3 0 6 1q4 2 6 8q0 12 -19 17h-3q-7 0 -7 -7z" />
<glyph unicode="H" horiz-adv-x="825" d="M20 1004q0 29 26 50t69 25q29 2 37 8.5t6 22.5q-8 47 -6 63.5t18 26.5q12 8 29 8t39 -8q27 -10 39 -9t24 13q18 18 55 18q1 0 2 1q36 0 52 -19q16 -20 32.5 -20t40 -28t34.5 -24.5t15 35.5q4 39 34 43t44 -32q8 -27 25.5 -32t36 12.5t49.5 9t33 -32.5q4 -27 -52 -64 q-39 -27 -44 -35t12 -26q14 -16 16 -28.5t-6 -35.5q-38 -107 -38 -144q0 -16 7 -18q12 -4 62.5 -44t62.5 -42q33 -13 33 -39q0 -6 -2 -14q-10 -37 -55 -37q-31 0 -80 41q-37 33 -46.5 29t-17.5 -49q-4 -29 -37 -29q-23 0 -28.5 10.5t-8.5 48.5q-4 51 -18 56q-12 2 -12 -45 t-16.5 -55.5t-43.5 24.5q-31 37 -45 33t-18 -54q-2 -39 -8 -48t-27 -9q-16 0 -23.5 5t-13.5 19.5t-16 45.5q-18 68 -31 68q-1 0 -2 -1q-10 -4 -12 -47q-4 -47 -28 -54q-4 -1 -8 -1q-23 0 -56 33q-23 23 -29 39t-4 49q4 53 24 78q14 16 7 30.5t-58 69.5q-74 76 -74 109z M301 1117q0 -13 13.5 -13t13.5 13t-13.5 13t-13.5 -13zM328 836q0 -27 12 -27q14 1 28 19q8 12 8 18q0 4 -3 6q-8 10 -19 10q-6 0 -10 -2q-16 -6 -16 -24z" />
<glyph unicode="I" horiz-adv-x="778" d="M25 696q-6 9 -6 17q0 11 10 22q16 20 32 21q8 0 39 25.5t45 21.5q10 -4 18.5 4t8.5 21.5t-8 23.5q-16 16 -14 38.5t18 39.5q20 14 7 39.5t-38 25.5q-31 0 -44 22.5t-1 51.5q16 35 29 35q12 0 41 39l28 41l-34 12q-25 10 -33 34t8 38q6 10 209 10q94 0 135 -2t61.5 -7 t36.5 -20q34 -26 89 -26h4q35 0 51 -6.5t28 -26.5q15 -23 15 -39q0 -13 -8 -19q-14 -11 -48 -11q-16 0 -38 3q-68 10 -93 21q-33 16 -30 -12q2 -18 18 -50q29 -45 29 -74q0 -17 -10 -28q-8 -9 -21 -9q-19 0 -49 21l-37 29l-22 -35q-18 -27 -16.5 -36t30.5 -38 q41 -39 113 -55q61 -16 80.5 -36.5t0.5 -45.5q-16 -18 -63 -18h-10q-10 1 -18 1q-35 0 -42 -14q-2 -8 4.5 -12t16.5 -4q29 0 45 -22q9 -11 9 -21q0 -24 -62 -33q-35 -6 -93 -6q-110 0 -110 -8q0 -6 41 -53q33 -39 38 -57.5t-16 -39.5q-14 -14 -30 -14q-29 0 -66 47 q-39 49 -86 72q-49 20 -91 50t-63 30q-25 0 -38 22zM256 742.5q0 -13.5 18 -13.5q20 0 27 14q4 8 -8 11q-4 2 -8 2q-29 0 -29 -13.5zM390 1120q1 -30 11 -30q13 -1 19 32q8 43 -10 43h-2q-4 0 -11 -4q-7 -9 -7 -34v-7zM391 754l8 -15q8 -8 17 -8q6 -1 12 3q14 10 14 30 q0 17 -15 17q-5 1 -11 -1q-26 -8 -25 -26z" />
<glyph unicode="J" horiz-adv-x="774" d="M20 819q4 27 14.5 31t63.5 2q31 -2 50.5 -6t34 -13.5t30.5 -25.5l41 -39l37 41q31 36 53 36q4 0 8 -1q25 -6 43 12q12 18 47 18q29 0 27 9q-2 16 -86 32q-80 14 -109.5 30t-48.5 50q-20 41 -57 41t-60.5 18.5t-19.5 43.5q2 16 17.5 21t62.5 7q39 2 53.5 5.5t19.5 10.5 t7 25q4 25 15 32t56 13q64 7 119 7q69 0 123 -11q43 -8 127 -22q47 -8 62 -28q5 -8 5 -17q0 -15 -16 -33q-13 -17 -71 -17q-12 0 -25 1l-82 4l-8 -183q-4 -119 -10 -157.5t-25 -65.5l-31 -39l31 -26q29 -29 62 -33t46 -26.5t-3 -43.5q-18 -22 -55 -22h-12q-46 4 -79 32 q-41 35 -72.5 48.5t-70.5 13.5q-31 0 -60.5 8t-56.5 23.5t-43 33.5q-29 29 -51 29q-27 0 -33 27q-8 27 -41 47q-29 18 -29 49v8zM115 916q-3 7 -3 14q0 15 13 33q16 18 33 18l41 -29q18 -25 10 -36t-49 -17q-35 -2 -45 17zM318 714q8 -14 44 -20q20 -4 33 -4q8 0 13 2 q14 4 34 29q31 35 31 49q0 20 -16 10q-10 -8 -17 -18q-7 -21 -26 -21q-18 0 -47 19q-16 8 -24.5 8t-16.5 -12q-11 -19 -11 -32q0 -6 3 -10zM343 1042q-1 -2 -1 -4q0 -5 3 -9q5 -7 14.5 -7t14.5 7q3 4 3 9q0 2 -1 4q-3 7 -16.5 7t-16.5 -7z" />
<glyph unicode="K" horiz-adv-x="811" d="M26 898q-4 7 -5 15q0 13 14 27q16 16 39.5 15t38.5 -19q18 -20 34 -21q17 0 19 67q0 5 1 10q0 59 -17 83q-14 27 0 58t20 63q2 23 11 29t42 6q50 0 60 10q9 9 22 10q28 0 76 -41q43 -37 60.5 -38t37.5 32q23 33 70 33q45 0 45 -15q0 -10 -19 -26q-29 -23 -21.5 -38 t40.5 -9q13 3 25 3q27 0 51 -14q29 -18 29 -43q0 -5 -1 -10q0 -4 -1 -8t-3 -7t-4 -5t-7 -4t-10 -3t-13.5 -1t-16.5 -1t-20 -1h-21q-59 0 -78 10q-20 12 -30 -4q-6 -8 8 -19q12 -8 12 -43q0 -39 18.5 -89t40.5 -74q25 -27 17 -48q-6 -16 -33 -18t-37 12q-8 14 -22 1 q-4 -3 -3 -10q0 -17 27 -52q25 -29 39 -37t33 -4q5 1 10 1q43 0 123 -46q20 -8 47 -45q18 -25 18 -35q0 -9 -10 -20q-15 -18 -35 -18q-26 0 -61 30q-39 35 -72 35q-29 0 -47 18q-16 23 -45.5 20.5t-44.5 -26.5q-16 -27 -60 -27t-67 25t-102 26q-86 2 -109 17 q-27 14 -26.5 39.5t26.5 40.5q29 15 29 39q0 7 -3 14q-11 33 -73 72q-54 38 -66 58zM248 756q0 -29 35 -41q37 -14 56 -12t10 18.5t-44 34.5q-37 25 -47 23.5t-10 -23.5zM314 1044q3 -8 10 -8q12 0 27.5 17.5t15.5 31.5q-1 17 -11 17t-26 -15q-8 -10 -14 -22q-4 -8 -3 -14 q0 -4 1 -7zM358 928q4 -27 33 -58q37 -37 48 -29.5t-1 58.5q-10 51 -41 53q-8 2 -15 2q-26 0 -24 -26zM397 692q4 -25 35 -28q7 -1 12 -1q15 0 15.5 9.5t-15.5 25.5q-10 12 -23 16q-5 1 -9 1q-7 0 -11.5 -4t-4.5 -11q0 -3 1 -8z" />
<glyph unicode="L" horiz-adv-x="702" d="M20 887q0 16 12.5 32.5t33 26.5t40.5 10q43 0 51.5 10.5t-12.5 43.5q-13 22 -13 42q0 14 7 27q12 31 23 105q8 72 14 84q7 11 22 11q7 0 15 -2q27 -7 31 -28q2 -8 8 -16t15 -14.5t18 -10.5q20 -8 32.5 -5t30.5 20q30 29 57 29q13 0 25 -6q29 -16 29 -58q0 -11 -2 -25 q-10 -47 2 -43t45 68q36 71 65 71q18 0 33 -26q4 -7 4 -18q0 -22 -20 -58q-31 -51 -31 -94q0 -35 -19.5 -47t-46.5 4q-25 16 -49 -12q-22 -24 -71 -24q-7 0 -15 1q-63 8 -84 19q-16 6 -19 0.5t-1 -29.5q2 -25 12 -34t39 -13q14 -2 29.5 -6t21.5 -6.5t15.5 -1.5t18.5 5.5 t24 12.5q33 23 106 26q51 2 62.5 -1t15.5 -27q4 -29 -17.5 -48.5t-60.5 -19.5q-43 0 -43 -14t39 -57q31 -35 52.5 -46.5t58.5 -15.5l61 -8v-74q0 -37 -2 -50t-8 -18.5t-25 -5.5q-33 0 -51 39q-12 27 -31.5 31t-126.5 4q-137 0 -166 -16q-16 -8 -30.5 -6t-46.5 20 q-53 29 -84 29q-45 0 -69 40q-10 17 -10 31q0 20 19 35q18 16 60 -4q39 -23 49 -8q0 2 -2 6t-8.5 9t-14.5 9.5t-18 10.5q-98 41 -99 84zM250 766q4 -23 30 -33q13 -5 27.5 -5t28.5 5q10 3 10 12q0 10 -18 43q-29 46 -52 46q-4 0 -8 -1q-20 -6 -20 -42q0 -11 2 -25z" />
<glyph unicode="M" horiz-adv-x="872" d="M23 737q-3 14 -3 36q0 35 7 89q8 70 16 98.5t29 49.5q33 35 32 73q0 41 29 68q27 23 41 57q8 23 32.5 28t41.5 -13q16 -17 53 12q32 24 51 24q6 1 10 -1q20 -8 27 -62q6 -33 6 -54q0 -12 -2 -20q-6 -20 -28 -16q-7 1 -13 1q-40 0 -47 -46q-1 -7 -1 -13q0 -50 42 -81 q10 -8 23 -13q35 -12 28 -43q-2 -29 9 -32q12 -4 16 14q2 9 2 19q0 26 -16 51q-20 31 -21 71q0 33 31 67t55 23q12 -4 22.5 8.5t24.5 45.5q16 37 27.5 48t27.5 9q14 -2 20.5 -8t9.5 -19.5t5 -44.5q4 -68 29 -110q13 -24 13 -42q0 -15 -9 -26q-27 -37 -27 -62q0 -7 2 -14 q4 -12 12.5 -12t35.5 12q37 18 55 39q19 23 49 23q15 1 32 -5q52 -18 52 -61q0 -27 -8 -42t-26.5 -21t-53.5 -6q-57 0 -102 -27q-31 -18 -38.5 -32.5t-9.5 -61.5q0 -66 -8 -80q-10 -16 -35.5 -13t-35.5 21q-14 25 -37 11.5t-47 -58.5q-25 -50 -51 -66q-13 -8 -29 -9 q-15 0 -33 7q-33 11 -33 31q0 17 25 41q18 16 18 29.5t-16 68.5q-25 76 -49 76q-16 0 -20.5 -11t-0.5 -48q4 -59 4 -95q0 -24 -2 -39q-4 -36 -22 -55q-22 -24 -34 -24h-1q-12 2 -49 33q-35 31 -40 63.5t25 48.5q17 10 21 35q3 17 3 66q0 22 -1 49q-2 135 -12 141 q-12 8 -27 -35q-10 -33 -16 -86q-12 -117 -56 -117q-27 0 -34 37z" />
<glyph unicode="N" horiz-adv-x="784" d="M22 1256q4 11 39 42q47 45 62 45q49 0 74 -61l20 -45h125q80 0 106.5 -5t43.5 -22q23 -25 34 -24.5t17 26.5q8 27 39 23q20 -4 26 -18.5t10 -71.5q6 -63 12.5 -76.5t37.5 -21.5q84 -23 90 -148q1 -13 1 -24q0 -15 -2 -24q-3 -15 -8.5 -18.5t-21.5 -3.5q-20 0 -29.5 8.5 t-15.5 30.5q-25 79 -40 79q-1 0 -3 -1q-14 -6 -16 -72q-1 -18 -1 -31q0 -24 4 -35q7 -17 38 -52q51 -51 61 -82q12 -27 31 -56q7 -11 7 -21q0 -14 -13 -26q-14 -14 -24.5 -15t-33.5 13q-37 18 -43 41q-4 14 -14 17.5t-41 -0.5q-15 -2 -26 -2q-29 0 -42 14q-16 20 -48 21.5 t-42 -15.5q-8 -16 21 -35q28 -20 29 -43q0 -9 -4 -19q-14 -34 -64 -34q-35 0 -48.5 18.5t-31.5 88.5q-12 43 -22.5 59t-26.5 18q-18 4 -24.5 -3t-10.5 -29q0 -23 -8 -30t-29 -7q-12 0 -18 1t-10.5 12t-5.5 25.5t-3 51.5q-4 59 -10 77.5t-27 32.5q-31 23 -30.5 48.5 t30.5 37.5q33 12 32 32t-38 57q-37 35 -37 63.5t37 28.5t37 30q0 25 -31 58q-29 31 -55 31q-5 0 -10 -1q-29 -8 -47 17q-11 11 -11 19zM336 1130q-6 0 -6 -6q0 -9 14 -32q10 -16 21 -23q20 -12 10 14q-4 9 -10 21q-14 27 -29 26zM391 786q-10 -11 -10 -20q0 -14 22 -24 q16 -7 27 -7q16 0 25 13q4 6 4 12q0 16 -16.5 32.5t-25.5 15.5t-26 -22zM512 1129.5q0 -13.5 13.5 -13.5t13.5 13.5t-13.5 13.5t-13.5 -13.5z" />
<glyph unicode="O" horiz-adv-x="888" d="M25 795q-3 11 -3 22q0 21 12 37q19 26 48 23t43 -35q10 -33 36.5 -33t47.5 33q20 29 20 52q0 21 -18 36q-18 14 -19.5 38.5t17.5 39.5q21 14 27 71q14 99 80 149q61 47 157 46h16q37 0 53.5 -3t24.5 -9.5t13 -18.5q12 -31 36.5 -32t49.5 26q26 27 66 27h11q48 -4 88 -41 q37 -33 40 -63v-5q0 -26 -27 -45q-16 -8 -26.5 -4t-29.5 29q-29 35 -45 34q-23 0 -53.5 -39.5t-30.5 -68.5q0 -44 23 -44q16 0 43 21q25 16 37 19.5t24 -8.5q29 -23 17 -48.5t-68 -62.5q-57 -40 -73 -72q-10 -20 -11 -51q0 -19 4 -43q4 -31 13.5 -37t44.5 -6q49 0 73 -29 q18 -18 18.5 -26t-16.5 -23q-19 -19 -86 -19q-15 0 -32 1q-92 2 -111 12q-10 8 -121 10q-19 1 -34 1q-38 0 -58 -4q-26 -5 -45 -21q-23 -22 -46 -22q-4 0 -7 1q-23 4 -27 33t17 45q39 33 -9 39q-14 2 -39 2q-61 0 -109 18.5t-56 47.5zM338 795.5q0 -13.5 47 -13.5t47 13.5 t-47 13.5t-47 -13.5zM352 1157q0 -12 29 -29q18 -10 27.5 -6.5t25.5 23.5q16 24 16 37q0 16 -23 16h-3q-45 -4 -68 -31q-4 -6 -4 -10zM384 934q2 -1 5 -1q11 0 41 28q25 25 26 34t-16 23q-14 16 -20 12t-21 -39q-17 -36 -17 -50q0 -5 2 -7zM526 1069q16 -10 27 -43 q10 -27 20 -27q4 0 9 5q7 10 7 26q0 14 -5 33q-13 50 -33 50q-11 0 -25 -15q-8 -9 -8 -16t8 -13z" />
<glyph unicode="P" horiz-adv-x="827" d="M20 1276q1 23 17 39q14 14 26 13q5 0 9 -1q16 -6 51 -45l39 -49l182 -2q88 0 125 -2t56.5 -8.5t41.5 -22.5q29 -20 55.5 -26.5t86.5 -6.5q59 -2 77.5 -6t20.5 -20q1 -5 1 -11v-6q-1 -8 -5 -15t-10.5 -13.5t-14.5 -9.5t-19 -6t-24 -3q-49 0 -49 -15q0 -13 33 -36 q27 -20 32 -32.5t-1 -41.5q-4 -20 -5.5 -57t-6.5 -63.5t-21 -41.5q-18 -16 -27.5 -17t-34.5 15q-27 20 -65 20q-9 0 -19 -1q-35 -2 -42 -9.5t-7 -39.5q0 -45 -24 -60q-14 -8 -24.5 -5t-29.5 26q-28 35 -98 44q-25 3 -42 3q-28 0 -28 -10q-2 -6 15 -23q16 -18 0 -43 q-16 -29 -17 -45q0 -16 -38 -61q-22 -29 -36 -36q-6 -3 -12 -3q-8 0 -16 6q-25 14 -61.5 87t-36.5 107q0 39 -13 45q-14 8 -14 54q-1 40 29 66q22 19 51 20q9 0 18 -2q23 -4 30 3t11 40q9 51 9 82q0 19 -3 29q-8 30 -49 55q-47 29 -85 72.5t-38 68.5zM168 728 q0 -28 13.5 -28t13.5 28t-13.5 28t-13.5 -28zM287 1049q14 0 27.5 21.5t7.5 33.5q-16 27 -37 4q-10 -10 -9 -32q-1 -27 11 -27zM369 893q10 0 26 10q20 10 47 10q16 0 35 -4q33 -4 45.5 0t26.5 23q20 30 20 56q-1 4 -1 8q-4 28 -31 40q-33 12 -43 49q0 6 -2.5 16.5 t-3.5 16.5t-4 14.5t-6 12.5t-8 8t-13 4q-20 0 -13 -39q6 -37 -14 -53q-20 -20 -20 -52t-31 -71q-22 -30 -22 -42q0 -7 8 -7h4z" />
<glyph unicode="Q" horiz-adv-x="905" d="M27 872q14 20 91 37q44 10 75 10q24 0 40 -6q4 0 8.5 1t7.5 5.5t5 12.5t2 20q1 10 1 19q0 74 -73 82q-29 2 -47 13t-22 26.5t6 33.5q12 20 54 20q7 0 15 -1q39 -2 50.5 3t19.5 34q16 43 48 55t126 12q68 0 89.5 5.5t27.5 19.5q8 25 20 41q11 14 27 14q9 0 20 -5 q29 -13 29 -46q0 -20 23.5 -44t44.5 -24q25 0 59.5 -28.5t34.5 -51.5q0 -20 41 -53q25 -18 32 -33q5 -11 5 -32v-13q-4 -35 -15.5 -47t-33 -1.5t-37 20.5t-41.5 30q-6 6 -10.5 9.5t-10.5 8.5t-9 7t-7 5t-7 4t-7 1q-8 0 -9 -100q0 -61 5.5 -80.5t17.5 -19.5q20 0 72.5 -53.5 t52.5 -73.5t-39 -50q-41 -31 -45 -53q-6 -25 -53 -24q-74 0 -95 75q-14 43 -36 49h-6q-21 0 -54 -26q-40 -32 -40 -51q0 -3 1 -6q14 -31 16.5 -63t-8.5 -38q-10 -5 -21 -5q-13 0 -28 9q-26 15 -41 49q-12 27 -22 36.5t-31 9.5q-39 0 -62.5 30.5t-23.5 83.5q0 41 -6 53.5 t-31 20.5q-19 7 -35.5 7t-31.5 -7q-31 -15 -57 -15q-36 0 -62 29q-16 17 -16 32q0 9 6 17zM346 963q4 -2 9 -2q18 0 57 22q40 24 70 24h6q32 -3 36 -34q4 -20 38 -52t52 -32q8 0 4 51q-2 29 -8 38t-20 7q-16 -2 -35.5 31t-36.5 33q-24 0 -49 20q-23 17 -34 17h-3 q-10 -3 -47 -44q-46 -48 -46 -68q0 -7 7 -11zM352 707l8 -7q7 0 7 14.5t-15 14.5q-9 0 -9 -5.5t9 -16.5zM426 809q-1 -2 -1 -4q0 -12 23 -29q29 -22 46 -16q20 8 20 20t-40 26q-23 7 -35 7q-10 0 -13 -4zM647 764q0 -20 30 -55t46 -35q18 0 18 12q-6 12 -26 19q-27 6 -27 43 q0 35 -20 35v-1q-21 0 -21 -18z" />
<glyph unicode="R" horiz-adv-x="833" d="M20 1030q-1 5 -1 10q0 26 40 31q16 2 37 -2q18 -2 28.5 -3t23 4t22.5 13.5t31 26.5q55 47 55 78q0 33 8 39q8 10 144 10q90 0 124.5 -6t83.5 -31q47 -25 60.5 -38t15.5 -40q2 -51 7.5 -62t29.5 -11q29 0 46.5 -17.5t6.5 -40.5q-8 -20 15 -53q19 -27 19 -45q0 -15 -13 -23 q-9 -6 -20 -7q-23 0 -54 28q-31 29 -45 17.5t-6 -58.5q2 -13 2 -24q0 -30 -16 -44q-29 -25 6 -43q20 -10 49 -10q43 0 72 -41q25 -35 25 -63q0 -5 -1 -9q-3 -28 -31 -32q-3 0 -7 -1q-24 0 -46 23q-18 21 -52 21q-10 0 -22 -2q-20 0 -30.5 -2t-19.5 4t-15 13t-17 26 q-18 31 -27 40t-15.5 5t-16.5 -25q-14 -35 -42 -36t-49.5 27t-21.5 66q0 37 -14 45q-20 12 -36.5 -13t-18.5 -77q-2 -35 -5 -48t-10.5 -17t-23.5 -4q-23 0 -29 10t-10 61l-8 74l-58 8q-53 6 -73.5 29t3 43t77.5 20h59v66q0 63 -8 74q-8 6 -53 -21q-34 -20 -69 -20 q-12 0 -24 2q-70 12 -82 55zM336 992q-1 -14 -1 -25q0 -34 9 -41q8 -8 44 7t61 38q27 20 94 30q80 10 80 23q-4 14 -111 14q-99 3 -111 19q-14 18 -24 18t-25 -14q-12 -13 -16 -69zM457 755.5q0 -26.5 13 -26.5t13 26.5t-13 26.5t-13 -26.5z" />
<glyph unicode="S" horiz-adv-x="851" d="M22 895q4 41 33 45h5q26 0 46 -37q18 -37 49 -41h7q27 0 53 29q14 16 15 25.5t-9 27.5q-16 28 -2 46q5 6 5 16q0 19 -17 49q-26 45 -26 73q0 29 30 52q31 24 47 63q8 23 18.5 28t26.5 -1q25 -8 94 -8h14q58 0 144 -27l94 -27l33 35q30 31 50 33h2q19 0 42 -27 q23 -25 11.5 -46t-70.5 -60q-39 -27 -54.5 -44.5t-21.5 -45.5q-8 -49 0 -54q2 -2 6 -2q15 0 60 25q47 25 80 25q3 -1 7 -1q36 -2 40 -32q2 -29 -35 -47t-56 -56q-16 -37 -57 -37q-18 0 -25.5 -2t-10.5 -10t-3 -28q0 -49 -18 -99q-12 -35 -25.5 -46t-56.5 -23 q-58 -15 -110 -15q-39 1 -75 9q-83 20 -129 79q-18 29 -34.5 36t-59.5 7q-29 0 -44 2t-26.5 10.5t-23.5 22.5q-24 33 -24 69q1 4 1 9zM309 918q8 -12 23 -21q23 -14 31 -1.5t-15 28.5q-27 18 -39 18q-9 0 -9 -6t9 -18zM354 1090q0 -12 45 14q33 20 48.5 40t3.5 32 q-9 8 -19 8q-6 0 -12 -3q-17 -7 -27 -30q-12 -31 -24 -41q-14 -8 -15 -20zM393 815.5q0 -20.5 13.5 -20.5t13.5 20.5t-13.5 20.5t-13.5 -20.5zM428 874q-2 -4 -2 -7q0 -5 6 -5q14 0 14 13.5t-4 13.5q-8 0 -14 -15zM466 1019q0 -6 13 -20q18 -20 30.5 -8.5t35.5 70.5 q16 35 16 48q1 7 -5 7q-14 0 -28 -33q-12 -33 -43 -47q-19 -11 -19 -17zM512 836q12 0 30 19q9 10 9 15q0 4 -8 4q-11 0 -29 -19q-10 -10 -9 -15q0 -4 7 -4z" />
<glyph unicode="T" horiz-adv-x="743" d="M25 899q10 33 37.5 40t48.5 -17q16 -18 36 -19q20 0 60 -37q47 -45 47 -22q-2 29 -39 71q-8 8 -12 9q-8 -2 -29 16q-14 11 -14 48q0 15 2 34q1 10 1 20q0 54 -20 72q-18 22 -18 46q0 7 2 14q2 23 30.5 31.5t143.5 21.5q35 6 45 14q10 10 31 10q5 0 12 -1q31 -3 62 -19 q37 -20 89 -20.5t58 -14.5q8 -12 47 -12q49 0 64.5 -39t15.5 -158q0 -57 -2 -90t-10 -52.5t-20.5 -19.5t-33.5 9q-27 14 -38 14q-7 0 -9 -34q-1 -15 -1 -32q0 -20 2 -41q3 -39 12 -51q8 -14 -7.5 -34.5t-34 -20.5t-40 33.5t-19.5 62.5q4 37 0 43t-26 -6q-27 -14 -27 -37.5 t-25 -48.5q-27 -23 -30 -53q-4 -30 -36 -30h-2q-34 1 -38 32q-4 25 -45 47t-80 22q-25 0 -47 52q-10 23 -18.5 33t-19.5 15t-28 5q-46 3 -68 31q-14 17 -14 38q0 12 5 25zM244 1038q4 -16 30 -8q31 10 35 15.5t-2 23.5q-16 35 -47 4q-17 -17 -16 -30q-1 -2 0 -5zM424 1083 q10 -16 22 -26q18 -8 26.5 -7t7.5 13.5t-15 26.5q-24 26 -36 26h-1q-10 0 -10 -10q0 -9 6 -23zM487 906q0 -3 15 -3q20 0 82 27q45 16 53 27.5t8 50.5q0 61 -18 65h-2q-7 0 -13 -16q-2 -4 -5 -17.5t-6 -17.5t-8 -12.5t-13.5 -11.5t-20.5 -3q-35 0 -35 -22q0 -25 -22 -47 q-15 -17 -15 -20z" />
<glyph unicode="U" horiz-adv-x="788" d="M20 995q0 55 20.5 89t51.5 30q25 -4 31 -29.5t-10 -58.5q-16 -31 -2 -45q11 -11 19 -11q17 0 22 50q1 16 1 36t-1 46l-5 115l37 4q37 4 45 -17q6 -20 21 -20q23 0 6 33q-8 14 -20 26q-26 23 -26 44q0 15 13 28q11 10 31 10q8 0 18 -2q33 -6 60 -29q23 -23 22 -73 q0 -51 17 -78q12 -27 -2.5 -46.5t-44.5 -19.5h-8q-62 -1 -78 -29q-5 -8 -4 -16q0 -23 36 -45q35 -18 76 -49q29 -18 37 -18t23 18q16 23 8 45q-17 36 -17 68q0 38 25 69q29 37 47 37q20 0 41 33q18 29 46 33t34 -23q10 -23 59 -65q29 -29 35 -41.5t-2 -26.5q-14 -23 -47 -31 q-20 -6 -26.5 -19t-10.5 -67v-69.5t7 -32.5t19.5 2t37.5 31q25 25 49 36t37.5 7t19.5 -18q2 -5 2 -11q0 -11 -6 -25q-10 -24 -33 -51q-29 -33 -32 -47t8 -47q5 -21 5 -40q0 -25 -8 -49q-16 -42 -57 -63q-35 -18 -61.5 -12t-57.5 39q-20 25 -30.5 26t-38.5 -14 q-33 -16 -85 -16h-12q-8 1 -16 1q-48 0 -70 -22q-21 -19 -55 -19q-8 0 -16 1q-31 2 -37 10t-6 41q-2 20 -12 64q-7 28 -7 55q0 15 2 29q1 12 1 23q0 34 -13 67q-18 43 -41 43q-33 0 -52.5 28.5t-19.5 77.5zM254 741q10 -12 47 -12q35 -1 51 -17q7 -7 16 -6q11 0 23 11 q25 23 72 26q33 4 40 12.5t11 43.5v13q0 27 -7 34q-2 2 -5 2q-9 0 -27 -19q-16 -20 -65 -20q-27 0 -67 -13q-41 -14 -67 -30q-23 -14 -23 -23q0 -1 1 -2z" />
<glyph unicode="V" horiz-adv-x="757" d="M20 659q4 23 11.5 29t34.5 4q29 -2 37 4t14 33q8 45 8 76q0 29 21.5 56.5t41.5 27.5q16 0 17 12q0 20 -27.5 77.5t-38.5 57.5q-16 0 -30 33q-8 20 -4 36.5t26 51.5q25 33 40 43t42 10q41 0 66 27q22 24 42 24q15 0 29 -14q15 -15 15 -32q0 -31 -52 -66q-45 -31 -50 -44 t22 -30q23 -10 55 -59q12 -18 23.5 -30.5t15.5 -10.5q6 4 6 33q0 18 -2 45q-2 23 -2 38q0 21 3 29q5 16 34 41q16 12 41.5 23.5t51.5 17.5t48.5 7t32.5 -5q14 -8 14 -35q0 -26 12 -25.5t35 25.5q27 29 54.5 24t31.5 -40q0 -14 -3 -24.5t-13 -21.5t-31 -26q-41 -29 -63 -47 q-12 -10 16 -47q29 -37 29 -53q0 -18 -61.5 -111.5t-73.5 -93.5t-12.5 -14.5t44.5 -14.5q41 0 78 -43q39 -49 45 -65.5t-6 -30.5q-15 -17 -34 -17q-31 0 -72 50q-29 35 -43.5 43t-42.5 2q-43 -8 -66 -27q-25 -23 -55.5 -14.5t-48.5 43.5q-18 41 -25 45q-2 6 -22 -22 q-20 -29 -39 -29q-20 0 -62 -47q-45 -47 -53 -47q-10 0 -59 41q-49 43 -46 77zM219 761.5q0 -20.5 13.5 -20.5t13.5 20.5t-13.5 20.5t-13.5 -20.5zM367 754q0 -9 5 -9t15 9q6 6 6 10t-13 4t-13 -14zM414 874q0 -10 12 -12q20 0 20 13.5t-12 13.5q-14 0 -20 -15zM487 1056 q0 -34 13.5 -34t13.5 34t-13.5 34t-13.5 -34zM530 872q1 -4 4 -4q7 0 23 27q15 21 15 32q0 6 -5 9q-2 1 -4 1q-9 0 -23 -22q-11 -19 -12 -33q0 -6 2 -10z" />
<glyph unicode="W" horiz-adv-x="784" d="M20 1212q4 20 15.5 25.5t54.5 3.5q63 -4 90 -18q16 -8 23.5 -4t15.5 24t19.5 27.5t40.5 7.5q18 0 31.5 -4t23.5 -13.5t24 -27.5q35 -45 35 -60.5t39 -15.5q16 0 26.5 4t19.5 14.5t22 28.5q27 45 53.5 45t34.5 15q10 16 35.5 12t35.5 -25q14 -23 62 -53q45 -27 45 -54 q0 -14 -7 -24q-5 -6 -15.5 -8t-30.5 -2q-51 4 -51 -6q0 -12 32 -60q31 -45 32 -66.5t-24 -35.5q-27 -12 -34 -41q-10 -27 -41 -39q-29 -10 -33 -37.5t22 -38.5q23 -8 46 21q20 29 48.5 25.5t37 -29t-6.5 -60.5q-12 -20 -28.5 -29t-50.5 -14q-61 -6 -99 -30q-23 -17 -44 -17 q-12 0 -23 6q-45 20 -65.5 21.5t-39.5 -14.5q-17 -15 -31 -15q-29 0 -47 64q-6 23 -11 33t-11 14t-15 -2q-29 -12 -48 -12q-22 0 -30 15q-4 7 -4 15q0 24 37 56l43 34l-16 78q-10 53 -21.5 71.5t-46.5 39.5q-49 33 -65 59q-14 27 -62 47q-27 11 -36 21q-7 9 -7 22v6z M385 1042q-4 -9 -4 -16q0 -8 5 -12q9 -8 24 6q16 16 39.5 16.5t23.5 12.5t-20.5 14t-42 -4t-25.5 -17zM426 805q-2 -6 -2 -12q0 -9 6 -15q7 -6 12 -6q8 0 13 12q6 16 -4 27q-16 16 -25 -6zM491 967q-1 -1 -1 -5q0 -8 6 -28q8 -37 14 -48.5t18 -11.5q10 0 12.5 19.5t-4 41.5 t-16.5 26q-25 10 -29 6zM504 1044q4 -8 16 -14h3q13 0 35 28q24 32 24 58q0 15 -7 15q-5 0 -14 -7q-10 -10 -18 -28q-14 -33 -29 -33q-13 0 -13 -8q0 -5 3 -11z" />
<glyph unicode="X" horiz-adv-x="698" d="M21 752q0 14 18 30q20 16 12 29q-10 12 8 45q8 16 8 34t-8 38q-8 21 -8 42q-1 20 7 40q16 41 57 61q25 12 32 21.5t-1.5 17.5t-34.5 20q-41 17 -41 43v5q12 76 14 82q4 5 54 5q34 -1 90 -3q138 -6 149 -15q18 -14 51 2q36 16 58 16q25 0 32 -20q6 -18 49 -28 q41 -8 78 -58q25 -33 30 -57q4 -17 4 -52q0 -14 -1 -32q-4 -102 -16 -139t-41 -37q-25 0 -29 18l-4 113q0 98 -9.5 124.5t-46.5 39.5q-27 6 -30.5 -4.5t18.5 -28.5q23 -25 20 -46.5t-31 -35.5q-20 -10 -44 -10q-10 0 -21 2q-27 6 -31.5 3t1.5 -26q10 -29 20 -41 q12 -14 12 -37t46 -32q14 -4 22 -8.5t12 -10.5t6.5 -13t2.5 -20q0 -27 -7.5 -35t-29.5 -10q-33 -4 -35 -14t24 -53q27 -43 27 -55q-10 -10 -68 -10q-3 0 -5 -1q-55 -1 -123 9q-72 10 -85 22q-14 14 -24 13t-33 -21q-32 -24 -56 -24q-2 0 -6 1q-26 4 -57 43q-36 43 -36 58z M158 909q0 -78 9 -78h1q18 10 48 70q24 47 24 62q0 4 -2 6q-8 8 -45 18l-35 8v-86zM257 811q5 -8 46 -29q48 -23 59 -23q2 0 3 1t1 4q0 10 -18 41q-25 49 -43 57q-4 2 -9 2q-14 0 -28 -20q-12 -19 -12 -28q0 -3 1 -5z" />
<glyph unicode="Y" horiz-adv-x="653" d="M22 1126q-2 4 -2 8q0 12 12 26q17 18 50 30q84 27 84 74q0 40 29 40q15 0 38 -10q53 -25 82 -69q25 -41 64 -41q27 0 34 6t11 31q2 16 6 23t13.5 11.5t29.5 6.5q49 4 62 24q14 19 30 19q6 0 13 -3q24 -12 28 -53q2 -45 17 -80q7 -17 7 -34q0 -23 -12 -43q-22 -37 -94 -88 l-88 -64l4 -92q0 -76 13.5 -97.5t58.5 -21.5q27 0 27 21q0 19 -23 55l-18 24q-25 35 -31 52.5t2 31.5q18 27 39.5 18t69.5 -67q18 -23 29 -38t17.5 -30.5t8.5 -28.5t2 -32q0 -82 -27 -107q-14 -13 -35 -13q-23 0 -55 14q-49 23 -137 24q-57 0 -74.5 6.5t-27.5 28.5 q-18 35 -19 55q0 25 -12 31q-14 8 -14.5 41t-28.5 37q-29 4 -43 27q-4 7 -4 15q0 18 22 42q30 31 54 31h6q26 -4 30 -47q6 -45 19 -46q12 0 12 13q0 6 8 39q4 16 -8 32.5t-57 51.5q-70 55 -80 80q-6 14 -17.5 17t-42.5 -3q-39 -10 -58 -1t-24 23zM266 1110q-6 2 -6 0 q0 -4 14 -20l19 -19q44 -37 60 -37q5 0 7 2q12 14 1.5 33t-35.5 23q-27 6 -60 18zM463 1147q0 -4 2 -8q2 -23 16 -23q15 1 15 17t-23 20q-3 1 -5 1q-5 0 -5 -7z" />
<glyph unicode="Z" horiz-adv-x="794" d="M24 970q-3 5 -4 11q0 10 11 23q18 23 56 16.5t77 -37.5l45 -41l41 41q37 33 57.5 37t42.5 -16q23 -20 60 -9q25 8 30.5 16.5t-3.5 18.5t-38 23q-29 14 -38 27.5t-13 37.5q-4 43 -16 41q-14 -6 -20 -45q-4 -29 -11.5 -37t-30.5 -8t-28.5 13.5t-8.5 78.5q-1 22 -1 40 q0 55 10 65q12 12 168 18q74 2 107.5 6t52.5 10.5t44 22.5q42 29 60 32h6q15 0 31 -14q16 -18 13 -41.5t-26 -35.5q-27 -14 -26 -29q0 -14 -39 -72q-42 -61 -42 -83q0 -13 14 -14q4 0 9 1q4 0 9 2q18 4 51 -3t61.5 -20.5t36.5 -27.5q5 -7 5 -15q0 -11 -9 -24 q-16 -23 -41 -23q-14 -2 -61.5 -38.5t-47.5 -47.5q0 -4 27 -12q21 -6 25 -22q2 -9 2 -32q0 -20 -2 -52l-4 -97l-107 -4q-66 -2 -92.5 -9t-44.5 -24q-20 -20 -34 -21h-2q-14 0 -46 11q-40 11 -87 11q-14 0 -28 -1q-13 -2 -25 -2q-48 0 -67 27q-10 13 -10 29q0 24 22 53 q18 27 11.5 42t-37.5 15q-47 0 -62 41q-12 39 27 47q27 8 22.5 30t-32.5 38q-40 18 -50 32zM217 885q0 -25 18.5 -77t26.5 -52t35 39l27 39q-53 41 -107 84v-33zM362 735q10 -6 40 21t22 39q-6 14 -18 14t-33 -34q-14 -23 -14 -33q0 -5 3 -7zM397 1184q-5 -8 -5 -15 q0 -19 40 -22h37q63 4 63 22q0 19 -62 25q-18 2 -32 1q-33 0 -41 -11zM459 756q1 -14 21 -22q11 -4 18 -5q7 0 12 4q6 10 -21 27q-29 14 -30 -4zM459 889q0 -6 58 -50t67 -44q10 -1 11 35v8q0 29 -7 34q-16 12 -68 26q-20 5 -34 6q-22 0 -27 -15zM537 977q8 -8 16 -8 q12 0 12 13t-20 13q-15 0 -15 -6q0 -5 7 -12z" />
<glyph unicode="[" horiz-adv-x="2086" d="M20 -142.5q0 13.5 1024 13.5t1024 -13.5t-1024 -13.5t-1024 13.5z" />
<glyph unicode="]" horiz-adv-x="2086" d="M20 -142.5q0 13.5 1024 13.5t1024 -13.5t-1024 -13.5t-1024 13.5z" />
<glyph unicode="a" horiz-adv-x="763" d="M20 915q0 27 22 31q5 1 11 1q24 0 72 -11q23 -6 35 -1t28 26q29 35 48 34q18 0 18 15q0 20 -29 2q-4 -2 -10 -4q-17 -11 -31 -11q-32 0 -47 56q-12 43 -45 51q-31 6 -31 39q0 25 12.5 30t80.5 5q100 0 252 -11q75 -5 111 -5q11 0 19 1q30 2 33 15q2 6 7.5 21.5t7.5 19.5 q5 18 24 18q6 1 12 -1q30 -6 33 -32q4 -25 54 -76q41 -43 41 -73q0 -12 -7 -21q-9 -12 -24 -12q-23 0 -60 27t-47 26q-5 0 -5 -19t5 -57q20 -152 23 -251l4 -66l-90 4h-16q-76 0 -78 -18q2 -12 18 -31q16 -14 -2 -37q-16 -17 -34 -17h-5q-22 3 -65 38q-49 37 -117 49l-68 12 l-6 63q-4 47 -15.5 60.5t-64.5 40.5q-45 23 -59.5 36t-14.5 33zM293 803q2 -25 6 -33t13 -11t32 -3q50 0 50 16q0 18 -62 55q-33 20 -37 21q-5 0 -5 -15q0 -11 3 -30zM377 912q2 -12 10 -15q20 -14 21 12q-2 29 -21 33q-6 0 -9 -9q-2 -5 -2 -12q0 -4 1 -9zM477 840 q14 -23 26.5 -23t16.5 23q1 6 1 12q0 16 -9 24q-12 11 -31 -2q-10 -6 -10 -16q0 -8 6 -18zM496 1023q0 -13 14 -13q9 0 9 5t-9 15q-6 6 -8 6q-6 0 -6 -13z" />
<glyph unicode="b" horiz-adv-x="813" d="M22 722q8 23 52 17q8 -1 15 -1q37 0 49 33q14 40 14 185q0 141 -15.5 196.5t-58.5 70.5q-31 12 -40 33.5t7 39.5q15 21 44 21q6 0 12 -1q38 -5 81 -34q49 -37 49 -65q0 -58 70 -58q14 0 31 2q16 2 28 2q26 0 40 -8q20 -12 20 -47q0 -29 24 -35q16 -4 38 -4q26 0 62 5 q66 9 79 24q14 18 38.5 17t40.5 -19q14 -20 9.5 -41t-28.5 -38.5t-56 -21.5q-18 -2 -29.5 -5t-15.5 -8t-2 -13q0 -4 10 -68q6 -47 31 -61q27 -12 68.5 -44t73.5 -61.5t32 -38.5q0 -18 -21 -34q-12 -10 -31.5 -4t-68.5 34q-53 33 -68.5 37t-23.5 -12q-8 -14 -8 -45 q0 -9 1 -21q6 -37 -11 -51q-7 -5 -15 -5q-13 0 -29 13q-18 14 -61 0t-86 -14l-86 14q-43 16 -59 1q-15 -14 -35 -14h-3q-22 1 -38 19q-16 20 -41 21q-23 0 -60 31q-31 27 -31 48zM240 786q-4 -10 -4 -20q0 -28 30 -52q40 -34 96 -38h14q47 0 85 24q29 25 14 29q-10 2 -49 0 h-5q-40 0 -61 33q-14 23 -22 26t-21 -8q-12 -10 -19 -9t-19 15q-14 20 -22.5 20.5t-16.5 -20.5zM352 975l8 -6q7 0 7 13t-15 13q-9 0 -9 -5t9 -15zM484 876q-3 -17 -3 -28q0 -15 6 -19q5 -4 9 -4q11 0 16 27l2 27q0 36 -11 36h-1q-10 1 -18 -39z" />
<glyph unicode="c" horiz-adv-x="837" d="M23 907q-1 7 -1 13q0 22 17 34q19 14 59 13h11q45 -4 55 3t22 46q31 86 107 126q48 25 101 25q31 0 63 -8q55 -16 106 -16q33 0 39 -5t0 -28q-2 -6 -3 -11t-1 -9.5v-7.5v-5t2 -2q14 0 73.5 41.5t69.5 57.5q12 21 35 21q4 -1 8 -1q29 -4 33 -33q1 -5 1 -10q0 -13 -4 -27 q-5 -20 -14 -36.5t-22.5 -27.5t-25.5 -11q-29 0 -72 -45q-37 -44 -80 -50q-7 -1 -13 -1q-33 0 -48 30q-12 25 -25.5 19.5t-13.5 -33.5q0 -10 -6.5 -18.5t-14.5 -8.5q-4 0 -8 2t-6 6t-4 9.5t-2 9.5q0 12 -6 19t-15 7q-20 0 -20 -51q0 -49 -17.5 -65.5t-70.5 -16.5 q-59 0 -66 -14q-10 -16 9.5 -42t52.5 -38q29 -12 45 -9.5t55 23.5q37 20 52.5 23t31.5 -6q18 -14 66 -35q35 -16 43 -43t-15 -43q-11 -6 -46 -6q-21 0 -50 2h-23q-31 0 -49 -4q-24 -6 -57 -27l-49 -35l-72 25q-68 25 -84 45t8 49q18 18 19.5 30.5t-10.5 47.5 q-14 35 -28.5 45t-64.5 20q-76 12 -77 37zM291 1044q-2 -6 -2 -9q0 -6 4 -7h2q8 0 18 14q10 11 10 16t-8 5q-16 0 -24 -19z" />
<glyph unicode="d" horiz-adv-x="696" d="M20 1113.5q0 19.5 7 31.5q16 29 38.5 19.5t45.5 -50.5q25 -51 34 -51q14 0 62.5 33.5t75.5 33.5t59 27q30 22 51 23q4 0 8 -2q20 -8 49 23.5t33 68.5q2 25 10.5 33t28 8t27.5 -7.5t10 -29.5q4 -37 14 -37q14 0 14.5 51t16.5 66q20 21 36 21q18 0 30 -27q9 -22 9 -55 q0 -19 -3 -40q-12 -117 -80 -127q-18 -2 -23.5 -17t-9.5 -79q-1 -20 -1 -35q0 -31 3 -45q4 -22 25 -43q20 -23 22 -43v-8q0 -25 -8 -92q-10 -74 -21.5 -106.5t-41.5 -75.5q-46 -66 -75 -66h-3q-31 4 -34 38v7q1 31 25 63q28 36 21.5 45t-49.5 -5q-45 -17 -94 -17 q-35 0 -58.5 -13t-60.5 -13q-53 0 -59 -13q-10 -16 -35 -13t-39 19q-16 20 4 53t49 33q25 0 25 6.5t-19 43.5q-20 41 -20 118q0 51 -6.5 73t-32.5 48q-18 18 -31.5 41t-21 43.5t-7.5 40zM203 834q4 -16 22 -23q8 -2 11.5 1t1.5 11q-6 18 -23 23q-8 4 -12 0q-2 -2 -2 -5t2 -7 zM267 816q-1 -3 -1 -7q0 -12 15 -21q12 -6 12 -34q1 -18 25 -24q12 -3 25 -4q15 0 33 4q34 7 56 26q36 28 36 40q0 6 -9 7q-8 2 -23 0q-6 -2 -12 -2q-23 0 -51 26q-25 29 -34 31t-42 -14q-25 -12 -30 -28zM272 956q0 -16 4.5 -22t13.5 -9t32 -3q47 0 77 -25q19 -18 27 -19h1 q8 0 28 17l26 25l-32 34q-33 35 -37 60q-6 31 -21 31q-16 0 -37 -29q-25 -35 -51 -31q-18 2 -24.5 -4t-6.5 -25z" />
<glyph unicode="e" horiz-adv-x="851" d="M25 1012q-4 5 -4 12q0 8 6 18q10 18 55 56l72 63l168 4q31 1 56 1q62 0 90 -4q38 -5 67 -19q31 -18 42 -19.5t31 13.5q31 20 51 20t39 21q15 19 34 19q5 1 10 -1q26 -6 36 -35q14 -33 0 -59.5t-47 -26.5q-43 0 -58.5 -12t-15.5 -49q0 -35 9.5 -42t27.5 11q14 14 60 10 q25 -2 36 -9t13 -23q6 -33 -29 -43q-37 -16 -94 -74q-61 -61 -80 -62q-23 0 -70 27q-49 29 -51 25q0 -4 -17.5 -37t-17.5 -35q0 -8 43 -8t94.5 6t71.5 14q48 20 79 20h2q32 0 63 -26q36 -30 36 -55q-1 -9 -5 -17q-10 -18 -32 -18q-17 0 -42 10t-43.5 8t-57.5 -18 q-25 -12 -38 -20.5t-19 -18.5t-8 -27q-2 -39 -37 -43h-4q-32 0 -76 52q-23 27 -37 39t-30.5 17t-49.5 7q-41 4 -62.5 14.5t-45.5 34.5l-39 41l10 129q2 34 2 62q0 100 -29 100q-23 -4 -59 -43q-29 -33 -58.5 -36t-47.5 26zM297 971q1 -23 13 -34q7 -6 13 -6t13 5 q18 10 -4 43q-23 31 -33 10zM430 1006q0 -75 78 -75q9 0 20 1q42 4 42 23q0 18 -38 28q-39 12 -69 41l-33 29v-47z" />
<glyph unicode="f" horiz-adv-x="763" d="M29 623q-8 13 -8 24q0 12 10 23q25 31 67.5 55.5t83.5 30.5q39 4 47.5 12t10.5 49q4 41 -9.5 61.5t-58.5 43.5q-33 16 -34 43.5t31 52t30 48.5t-37 24q-29 0 -35 24q-12 29 -41 60q-29 35 -29 60.5t27 49.5q25 23 48.5 13.5t27.5 -44.5q8 -49 51 -63h7q34 0 38 37 q0 35 30.5 78t67.5 61q30 12 68 12q17 0 35 -2q42 -6 79 -6q43 0 78 8q10 2 19 2q13 0 23 -4q16 -6 49 -35q35 -33 39 -47q1 -4 1 -12q0 -19 -6 -57q-9 -47 -9 -76q0 -16 3 -27q6 -25 -25.5 -55.5t-64.5 -30.5q-25 0 -32 -15t7 -40q16 -27 -4 -49q-20 -20 -41.5 -10 t-56.5 53q-31 40 -31 69q0 47 80 66q29 6 41 13t18.5 19.5t14.5 47.5q10 42 10 62v6q-2 20 -18 20q-12 0 -13 -47q0 -47 -22 -55q-16 -4 -55 -23q-35 -18 -49 1q-6 10 -6 28q0 17 6 41q8 26 8 43q0 14 -6 22q-11 17 -54 17q-76 0 -104 -68q-14 -39 -3 -52.5t64 -17.5l54 -4 l4 -63q2 -25 0 -41.5t-8.5 -24.5t-20.5 -18q-25 -16 -28 -24.5t12 -33.5q31 -59 46 -71.5t40 4.5q18 12 30.5 8t40.5 -33q31 -33 35 -46t-8 -60q-18 -68 -43 -90.5t-80 -22.5q-27 0 -42 -3t-28.5 -11t-29.5 -25q-37 -39 -64.5 -39t-62.5 39q-35 35 -69 38h-6q-30 0 -52 -25 q-25 -27 -49.5 -26t-38.5 28zM330 829q-7 -17 -7 -29q0 -38 60 -42q23 -2 39 -2q40 0 40 12q0 4 -3 8q-6 8 -25 19q-43 25 -49 39q-9 15 -28 15h-3q-20 -1 -24 -20z" />
<glyph unicode="g" horiz-adv-x="892" d="M23 1016q-2 6 -2 12q0 19 23 38q30 26 81 32q35 6 66.5 16t64.5 16.5t86 8.5q104 4 141 22q32 20 86 20q9 0 19 -1l65 -2v-242l62 -6q51 -6 72.5 -16.5t21.5 -30.5q0 -23 -27.5 -37.5t-70.5 -16.5q-61 0 -64 -28q-2 -18 35 -33q14 -5 30 -5q24 0 50 13q29 14 43 16.5 t37 -8.5q33 -15 33 -42q0 -33 -39 -37q-33 -6 -64 -33q-24 -22 -61 -22q-8 0 -17 1q-33 6 -40 2t-7 -28q0 -39 -25.5 -86t-60.5 -66q-39 -26 -101 -26q-3 0 -6 1q-67 1 -108 25q-41 27 -96 27q-51 0 -71.5 25.5t-31.5 99.5q-2 16 -2 29q0 34 15 46q12 11 12 39q0 13 -2 29 q-1 12 -1 22q0 32 15 44q20 18 21 92q0 35 -2 48t-7.5 17t-19.5 4q-31 -4 -57.5 -3t-47 4t-33.5 8.5t-15 11.5zM233 688q0 -14 5.5 -20t17.5 -4q23 6 23 24.5t-23 24.5q-12 2 -17.5 -4.5t-5.5 -20.5zM287 882.5q0 -20.5 13 -20.5t13 20.5t-13 20.5t-13 -20.5zM369 1031 q0 -3 14 -17q25 -29 25 -43q0 -20 26 -10q19 8 19 20q0 18 -45 39q-32 12 -38 12q-1 0 -1 -1zM434 637q0 -12 26 -25q16 -8 25 -8q6 0 9 4q8 13 -19 25q-41 25 -41 4zM535 899q5 -8 11 -8l13 12l8 35q0 31 -12 31q-10 0 -19 -29q-4 -16 -4 -27q0 -9 3 -14z" />
<glyph unicode="h" horiz-adv-x="745" d="M22 697q-1 4 -1 9q0 30 30 85q31 55 35 123v17q0 56 -25 81q-12 16 -13 27.5t9 31.5q8 18 8 37.5t-8 40.5q-10 27 -6.5 46t21.5 58l28 64l82 -8q70 -6 159 -6h46h30q47 -1 71 -5q32 -6 47.5 -22t21.5 -53q2 -14 6 -20.5t19.5 -8.5t46.5 2h17q81 0 77 -37q0 -12 -16 -29 q-22 -26 -59 -26h-3q-39 0 -78 -21q-33 -17 -39 -45q-2 -9 -2 -21q0 -28 9 -73q8 -37 19 -40t21 32q7 36 53 62q30 17 52 17q11 0 20 -5q26 -14 26 -31q0 -18 -38 -53q-41 -35 -41 -70q0 -37 -15.5 -62.5t-35.5 -25.5q-49 0 -59 -74q-2 -23 -10.5 -32t-26.5 -11 q-35 -6 -49 -20q-12 -8 -50 -8q-19 0 -45 2q-18 1 -31 1q-29 0 -37 -4q-12 -4 -16 -34q-4 -25 -12 -33t-29 -8q-20 0 -26 10t-10 49q-1 9 -1 17q0 45 19 65q14 16 13 22.5t-19 16.5q-29 16 -35 12t-6 -39q0 -37 -20 -46q-9 -4 -23 -4q-19 0 -47 7q-48 10 -54 40zM165 900 q1 -50 13 -58q10 -6 25.5 17t15.5 46q0 12 -8 28.5t-19.5 25t-17.5 2.5q-9 -9 -10 -52q1 -4 1 -9zM178 1162q0 -17 23 -34q14 -10 22 -8t25 23q24 29 24 49q0 17 -18 17q-16 0 -45 -13q-31 -12 -31 -34zM279 729q9 -9 16 -9q5 0 8 4q10 9 10 40q0 27 19.5 38t38.5 -5 q10 -10 21 -3t34 33q25 35 32 75q2 12 2 23q0 25 -11 44q-10 13 -72 33q-41 13 -59 13q-9 0 -13 -3q-4 -6 17 -47q14 -27 14 -39.5t-14 -38.5q-23 -35 -23 -53t-18 -56q-10 -20 -10 -32q0 -11 8 -17zM367 1167q0 -12 47 -32q29 -13 41 -15q1 0 3 -1l21 11q14 11 14 17.5 t-22 26.5q-30 23 -62 23q-3 -1 -7 -1q-36 -2 -35 -29z" />
<glyph unicode="i" horiz-adv-x="798" d="M20 733q4 18 18.5 23.5t72.5 5.5q61 0 76.5 6t33.5 35q20 39 31 84q4 29 1 36t-24 3q-20 -2 -29.5 10t-4 35.5t21.5 46.5q18 27 20.5 40t-8.5 46q-20 51 -26 61q-3 5 -3 14q0 18 13 52q14 31 24.5 39t38.5 4q18 0 28.5 2t18 9.5t15.5 23.5q10 20 22.5 27t36 7t48 -12 t40 -32.5t15.5 -41.5q0 -41 22 -46q4 -1 7 -1q22 0 63 21q61 33 94 33q40 0 68 -22q25 -20 24 -43v-7q-2 -18 -13 -23.5t-50 -5.5q-58 0 -58 -19q0 -18 52 -52q37 -25 44 -41.5t9 -67.5q0 -51 -5 -63.5t-28 -14.5q-29 -4 -48 17.5t-19 56.5q0 23 -27 42t-66 29q-22 6 -43 6 q-16 0 -30 -3q-47 -10 -45 -23q4 -14 14 -10q14 4 31.5 -14.5t17.5 -36.5q0 -25 -41 -56q-25 -18 -32 -34.5t-7 -53.5q0 -57 13.5 -57t13.5 18t56 60.5t80 42.5t32 -22.5t-6 -47.5q-10 -16 -9.5 -24.5t13.5 -18.5q25 -16 18 -55q-4 -27 -13 -35t-48 -12q-57 -8 -72 -23 q-16 -16 -43 -16q-20 0 -51 -14q-14 -8 -16.5 -16.5t6.5 -26.5q10 -16 7 -26.5t-20 -27.5l-28 -28l-29 28q-31 31 -37 86l-8 58l-105 -4q-17 -1 -32 -1q-137 0 -137 61q0 4 1 9zM385 1206q-1 -4 -1 -8q0 -10 7 -18q7 -6 12 -6q7 0 11 12q1 5 1 10q0 9 -5 16q-7 7 -12 7 q-8 0 -13 -13z" />
<glyph unicode="j" horiz-adv-x="739" d="M25 879q-5 8 -5 16q0 20 28 43q32 25 62 25q8 0 15 -2q6 -1 11 -1q27 0 48 23q25 27 60 27q20 0 44.5 15t38 34.5t3.5 30.5q-12 10 -92 16q-57 2 -68.5 7t-11.5 30q0 20 7 27.5t30 9.5q33 4 34.5 16t-22.5 51q-16 31 -12 43.5t41 59.5q43 51 58 57q3 1 5 1l25 -24 q14 -25 57 -30q43 -2 51 -31q2 -16 22.5 -38.5t46 -41t44.5 -20.5q27 -6 30 -37q6 -31 -29 -46q-17 -8 -36 -8t-39 7q-23 8 -33 7t-5 -10.5t26 -19.5q29 -16 20 -47q-8 -31 19 -46q22 -12 67 -12q12 0 25 1q29 4 42 2t16 -8.5t3 -22.5q0 -45 -63 -61q-21 -6 -42 -6 q-39 0 -75 20q-35 20 -45 17t-6 -33q4 -20 14 -28.5t27.5 -14t27.5 -13.5q14 -16 43 -16q16 0 66.5 -26.5t69.5 -26.5q27 0 45 -21q9 -11 9 -20q0 -10 -15 -25q-23 -25 -53.5 -25t-67.5 25q-39 25 -67 25q-14 0 -25 -6q-35 -17 -35 -84q0 -41 -43 -72q-43 -33 -51 -57 q-10 -25 -84 -45q-57 -14 -103 -14q-15 0 -28 1q-14 0 -23.5 2t-15 7.5t-7.5 11.5t-2 16q0 16 4.5 22.5t14.5 9.5t37 5q82 6 82 20q0 6 -7 13q-16 16 -16 44.5t-12 39.5q-16 8 -38 55t-30 84q-6 33 -14 40t-39 7q-45 2 -59 25zM268 838q-12 -31 -12 -55q0 -38 31 -60 q16 -12 27 -12q15 0 20 24q3 15 3 46q0 15 -1 34q-6 100 -29 103q-8 0 -16 -21q0 -2 -2 -4q-2 -12 -21 -55zM324 1197q0 -13 26.5 -13t26.5 13t-26.5 13t-26.5 -13z" />
<glyph unicode="k" horiz-adv-x="784" d="M20 1012q2 27 9.5 36t27.5 9q12 0 20.5 -4t14.5 -14.5t12 -28.5q6 -20 12.5 -29.5t14.5 -13.5t21 -4q27 0 30.5 17t7.5 118q1 31 1 54q0 48 -3 64q-4 26 -22 41q-29 25 -26 50t36 43q25 14 67 14q17 0 36 -2q72 -8 86 -14.5t14 -30.5q0 -16 10 -25.5t31.5 -17.5t28.5 -10 q20 -10 53 -7q4 1 9 1q30 0 67 -35q31 -29 34.5 -39t-10.5 -27q-14 -14 -14 -22.5t14 -28.5q18 -31 60 -30q32 0 70 -41q34 -36 34 -64v-6q-4 -27 -31.5 -32t-46.5 15q-18 20 -29.5 19.5t-11.5 -24t-19.5 -40t-39.5 -10.5q-12 6 -37 -14.5t-25 -38.5q0 -10 47 -58 q43 -41 45.5 -66.5t-32.5 -49.5q-37 -25 -64 -54q-44 -40 -102 -64q-47 -19 -88 -19q-11 0 -21 1q-57 6 -81.5 22.5t-24.5 51.5q0 29 21.5 39t47.5 -6q26 -17 57 -17q39 0 87 27q42 26 42 50q0 17 -20 32q-20 16 -20 47q0 35 -12 31q-12 -6 -27 -33q-10 -25 -20.5 -29 t-38.5 0q-29 4 -39.5 1t-14.5 -19q-6 -20 -33.5 -24.5t-35.5 16.5q-2 6 -13 80q-6 41 -12 51t-22 6q-9 -3 -18 -3q-21 1 -44 17q-34 24 -54 63q-17 33 -17 66q0 7 1 13zM272 1008q0 -51 13 -52q14 0 61 60q35 43 40 57t-7 43q-18 41 -33 41q-6 -2 -6 -18q0 -18 -35 -49 q-33 -31 -33 -82zM413 971q3 -6 21 -15q12 -4 22 -5h5q7 0 12 2q6 3 9 9q2 3 2 7q0 3 -1 5q-2 7 -10 15q-17 19 -27 19t-26 -19q-8 -9 -8 -15q0 -2 1 -3z" />
<glyph unicode="l" horiz-adv-x="665" d="M25 680q-5 14 -5 27q0 34 33 67q20 23 42 29t75 6q55 0 73.5 6t35.5 29q20 26 20 53q0 8 -2 16q-2 25 -15.5 33t-70.5 17q-84 14 -92 22q-10 10 8 30.5t37 18.5h80q18 0 28.5 1t17.5 5t9 9.5t2 13.5q0 27 -35 27q-32 0 -54 34q-16 24 -16 48q0 10 3 20q6 25 1 29t-40 -2 q-17 -3 -31 -3q-35 0 -50 22q-6 10 -6 20q0 24 29 55q26 30 87 30h4q61 1 90 21q23 18 36 18t56 -18q41 -16 103.5 -78.5t62.5 -87.5q0 -31 -9.5 -56.5t-21.5 -25.5q-16 0 -51 37t-41 61q-16 45 -27 11q-6 -18 -7 -52q0 -8 1 -18q0 -53 7 -74.5t32 -46.5q37 -35 47 -100 q4 -39 20.5 -65.5t65.5 -77.5q90 -92 90 -136q0 -11 -6 -20q-10 -16 -34.5 -13t-45.5 25q-22 25 -66 25h-12q-14 -2 -23 -3t-15.5 -3t-9.5 -6.5t-5 -9.5t-2 -13q-2 -33 -20 -47q-10 -8 -20 -8t-20 6q-20 14 -28 47q-4 25 -20.5 30t-92.5 7q-20 1 -37 1q-73 0 -100 -14 q-18 -10 -31 -10q-24 0 -34 31zM396 765q6 -9 26 -9q22 0 22 13q0 14 -18 22q-5 2 -9 2q-8 0 -14 -7q-8 -8 -8 -15q-1 -3 1 -6z" />
<glyph unicode="m" horiz-adv-x="901" d="M21 1173q1 7 5 13q6 8 16.5 13t28 8t38.5 5q61 3 94 11q39 13 61 13q20 0 27 -11q6 -12 47 -33q27 -12 35 -11t20 19q14 18 25.5 19.5t56.5 -15.5q35 -11 59 -11q19 0 31 7q29 16 50.5 -4t5.5 -51q-8 -14 -12.5 -37t-2.5 -41t8 -18q8 0 33 24q18 14 30.5 13t49.5 -21 q35 -20 51.5 -23.5t38.5 7.5q17 8 30 8q22 0 32 -25q4 -10 4 -21q0 -30 -35 -57l-6 -6q-20 -12 -33.5 -12t-46.5 12q-51 20 -62 21q-16 1 -30 -61q-10 -45 -9 -94q0 -18 1 -36l4 -84l-60 4q-53 2 -82 17q-12 8 -25.5 5t-23.5 -12.5t-16 -25.5t-6 -35q0 -29 -6.5 -39 t-24.5 -10h-6q-24 0 -44 26q-22 30 -22 74q0 29 -6 36t-33 7q-37 0 -57 -28q-18 -29 -47 -20t-49 50q-18 37 -20.5 83t12.5 57q14 8 14 102t-14 119q-12 26 -55 26h-3q-45 0 -63 19q-8 14 -8 24zM244 1047q2 -37 14 -37q8 0 23.5 31t15.5 51q-1 10 -17 11h-2q-14 0 -24 -9 t-10 -37v-10zM455 977q2 -2 16 4q51 35 51 57q0 7 -6 13q-3 3 -7 3q-13 0 -36 -38q-19 -32 -19 -38q0 -1 1 -1zM471 803q9 -6 19 -6q8 0 16 4q18 8 18 28q0 18 -12 18t-35 -16q-14 -10 -14 -18q0 -6 8 -10z" />
<glyph unicode="n" horiz-adv-x="827" d="M20 1018q0 37 84 45q37 4 63 18.5t64 51.5q66 59 109 84q37 18 57.5 9t46.5 -59q19 -38 40 -38q16 0 34 22q10 14 17.5 12t23.5 -22q18 -25 21 -19q0 6 -5 52q-3 20 -3 36q0 32 12 47q17 20 33 20q9 -1 17 -7q23 -18 34 -74q8 -49 30 -109q16 -45 17.5 -58t-13.5 -28 q-14 -14 -23 -14t-26 10q-31 18 -39 6t11 -45q12 -25 29.5 -31.5t68.5 -11.5q37 -2 53.5 -6t22.5 -10t8 -20v-6q-1 -23 -27 -37q-30 -16 -90 -15q-47 0 -58 -15t-22 -83q-4 -43 -11 -56.5t-26 -15.5q-31 -4 -45 25q-10 18 -22 22t-47 0q-51 -8 -76 -28q-23 -23 -55 -23 q-35 0 -54 -43q-18 -43 -53 -43q-23 0 -28 8.5t-7 38.5q0 12 -2 20.5t-4 14.5t-5 10t-7 7.5t-9 5.5t-12.5 6t-13.5 8q-18 14 -18 20.5t20 28.5q14 16 19.5 42t7.5 89v103l-58 8q-84 10 -84 47zM348 1008q-28 -43 -28 -57q0 -7 7 -6q8 0 25 9q27 14 59.5 14.5t47.5 -14.5 q10 -10 23 -10q10 0 22 6q8 11 6 19q-6 10 -66 53l-59 39z" />
<glyph unicode="o" horiz-adv-x="733" d="M26 770q-8 13 -7 26q0 21 22 40q16 14 88 24l72 8v93q0 43 3 62t10 32.5t22 25.5q51 43 56 61.5t-26 45.5q-25 20 -27.5 30.5t7.5 24.5q16 19 41 19q6 0 12 -2q33 -6 96 -43q53 -33 77 -39q12 -3 29 -3q19 0 44 3q28 3 46 3q15 0 23 -2q18 -5 54 -36q47 -41 47 -72 q0 -28 -39 -33q-25 -2 -29 -15q-2 -6 -2 -27.5t2 -57.5q6 -96 37 -160q30 -54 30 -99q0 -8 -1 -15q-2 -33 -8.5 -41.5t-28.5 -8.5q-14 0 -22.5 4.5t-13.5 13.5t-11 30q-15 43 -33 49q-4 1 -9 1q-20 0 -63 -18q-37 -16 -94 -16q-27 0 -59 4q-68 6 -85.5 13t-31.5 34t-27.5 33 t-54.5 6q-59 0 -86 -14q-14 -7 -25 -7q-22 -1 -35 23zM343 792q3 -10 11 -10q18 0 40 23.5t34 57.5t16 72q1 8 1 15q0 28 -13 49q-12 25 -19 27t-28 -12q-23 -16 -29 -48t13 -44q14 -8 12 -40t-19 -46q-12 -10 -17 -22q-3 -8 -3 -15q0 -3 1 -7zM524 1038q-1 -3 -1 -6 q0 -10 9 -24q18 -25 28 -25q3 0 5 2q4 2 4 8q0 10 -18 35q-12 18 -19 18q-5 0 -8 -8z" />
<glyph unicode="p" horiz-adv-x="1050" d="M24 944q-3 6 -3 12q0 10 8 19q18 20 32 20t55.5 -41t71.5 -88q25 -38 45 -38q2 0 5 1q10 4 35.5 -13t45 -41.5t15.5 -35.5q-6 -25 -30.5 -33t-45.5 7q-31 16 -55 16q-70 0 -84 62q-10 37 -47 83q-41 53 -48 70zM260 948q25 14 51 -4q26 -16 40 -16t14 16q0 20 -33 51 q-35 33 -42 75q-2 10 -2 20q0 29 16 50q22 29 65 29t57 -12q5 -5 34 -5q27 0 74 4q99 10 109 22q4 4 15 4q12 0 33 -4q40 -9 57 -21q16 -16 24 -51q8 -37 41 -86q14 -23 24.5 -33t22.5 -14t35 -4q45 0 86 -43t47 -74q4 -16 4 -29q0 -17 -7 -29q-13 -20 -37.5 -9.5 t-45.5 44.5q-27 43 -48 43q-3 0 -6 -1q-22 -7 -44 -74q-18 -51 -18.5 -65.5t16.5 -31.5q14 -23 11 -30.5t-10 -24t-1 -35.5q2 -6 2 -12q0 -23 -23 -51q-29 -35 -28 -53q0 -16 -21 -33q-12 -10 -21.5 -9t-29.5 17q-29 29 -51 35q-23 8 -33 47q-10 49 -17.5 59.5t-31.5 10.5 q-33 0 -40 -9.5t7 -31.5q18 -29 1 -44.5t-46 3.5q-25 14 -33 8t-26 -55q-14 -47 -41 -54q-5 -2 -11 -2q-22 0 -47 25q-25 29 -26 71q-1 2 -1 5q0 38 19 67q18 25 18 104v17l-4 88l-61 35q-61 36 -61 66q0 18 24 34zM451 915q-4 -6 -4 -12q0 -8 6 -15q10 -14 30 -14 q25 0 33 10.5t-6 26.5q-12 16 -30.5 17.5t-28.5 -13.5zM556 1056q-2 -2 -2 -6q0 -9 9 -24q10 -16 45 0q37 15 37 27q0 10 -47 10q-35 0 -42 -7zM606 854q4 -18 23 -18q25 0 41 -17q8 -7 16 -7q4 0 8 2q13 5 22 24.5t9 44.5q0 31 -7 37t-40 6q-49 -2 -62 -25q-11 -23 -11 -38 q0 -5 1 -9z" />
<glyph unicode="q" horiz-adv-x="876" d="M20 864q3 45 31 45q25 0 41 -30q12 -29 20.5 -29t12.5 29q4 35 6 127q2 45 12 51q8 10 8.5 46t26.5 58q14 13 32 13q31 0 75 -37q18 -16 98 -27l76 -6l43 65q43 71 79 71q19 0 37 -21q14 -14 27.5 -107.5t13.5 -167.5v-70l74 9q47 6 62.5 3t19.5 -18q10 -20 -4 -51 q-6 -8 -11 -30.5t-13.5 -38t-22.5 -17.5q-12 -2 -41 18.5t-52.5 48t-23.5 42.5q0 20 -6 21t-39 -13q-35 -12 -35 -51q0 -27 16.5 -40.5t84.5 -47.5q87 -40 121 -40q6 0 10 1q27 6 46 -14q13 -13 13 -29q0 -6 -2 -13q-6 -18 -53 -43l-47 -20l-76 49q-55 39 -78 39 q-7 0 -10 -3q-19 -13 -25 -112l-8 -98l-39 4q-10 2 -32.5 4t-56.5 5t-54 5q-55 4 -84 12.5t-39 19.5t-6 32q4 16 23.5 21.5t86.5 9.5q123 4 125 26q0 10 -24 29q-27 20 -72 25.5t-55 -11.5q-10 -18 -37 -12t-45 33q-12 18 -27.5 25.5t-46.5 7.5q-55 0 -79.5 17t-51.5 77 q-25 58 -25 100v8zM254 927q6 -9 45 7q25 8 40 6t42 -22q35 -27 48.5 -20t23.5 54l10 45l-74 -4q-74 -4 -110 -32q-26 -21 -26 -31q0 -2 1 -3zM319 805q23 -104 52 -105q27 0 27 19.5t-27 66.5q-35 63 -49 62q-6 -1 -6 -16q0 -10 3 -27z" />
<glyph unicode="r" horiz-adv-x="663" d="M37 1036q14 16 24.5 10t40.5 -38q37 -43 51.5 -48.5t39.5 19.5q24 19 24 94v6q0 51 5 66.5t22 19.5q27 8 25.5 30t-27.5 50q-18 20 -20.5 33t5.5 33q4 8 11.5 16t15.5 12t14 4q29 0 61.5 -39.5t37.5 -80.5q2 -18 4 -25.5t11 -14.5t20.5 -9.5t41.5 -6.5q47 -6 63.5 -3 t29.5 20q18 27 36.5 24.5t44.5 -30.5q23 -22 26 -36q1 -3 1 -7q0 -12 -8 -31q-10 -24 -10 -63q0 -16 2 -35q4 -41 0 -51.5t-25 -16.5q-31 -8 -55 -8q-25 0 -62 -29q-31 -20 -77 -22h-9q-41 0 -79 16q-18 8 -21 -14q-4 -16 -4 -64q0 -88 6 -88q10 0 42 33t38 51t24.5 20.5 t32.5 -12.5q16 -16 39 19q21 32 45 32q29 0 62 -45q25 -33 27.5 -44t-11.5 -25q-16 -14 -23.5 -14.5t-25.5 16.5q-18 18 -23.5 17t-15.5 -21q-16 -27 -53 -43q-14 -8 -22.5 -15.5t-12.5 -19.5t-5 -32.5t-7 -36t-15.5 -27t-26 -20.5t-37 -14t-48.5 -9q-23 -2 -41 -2 q-46 0 -62 14q-17 15 -16 57q0 15 2 33q10 68 29 88q18 18 18 76v57h-51q-98 0 -135 101q-9 30 -9 43t15 30zM280 668q-4 -8 -4 -13q0 -9 9 -14q6 -4 13 -3q6 0 14 4q14 10 14 28t-21 18q-15 0 -25 -20zM369 974q5 -7 16 -7q20 0 61 24q39 22 39 53q0 29 -10 29t-59 -35 q-50 -35 -50 -55q0 -5 3 -9z" />
<glyph unicode="s" horiz-adv-x="688" d="M24 1162q-4 8 -4 15q0 15 17 27q25 18 53 19h1q34 0 155 67q53 27 86 42q32 14 54 18q7 1 13 2q12 0 18 -6q9 -8 13 -27v-5q0 -26 -37 -48q-39 -20 -39 -36t37 -30t79 -71.5t42 -94.5q0 -41 14 -67q16 -27 0 -41q-14 -15 -13 -51q0 -12 1 -27q4 -20 10 -19q12 6 21.5 46 t37 74t52.5 34q27 1 33 -23q1 -5 1 -12q0 -21 -16 -51q-16 -31 -16 -43t16 -37q17 -28 17 -35q0 -8 -17 -26q-18 -21 -44 -21q-8 0 -17 2q-39 8 -60 -8q-13 -11 -54 -11q-20 0 -48 3q-37 4 -58 4q-14 0 -20 -2q-18 -4 -45 -33q-27 -27 -45 -35t-59 -8q-61 0 -85 10.5 t-40 44.5q-18 36 -20 86v7q0 46 18 84q13 36 13 69q0 8 -1 17q-8 43 8 49q15 10 15 50q0 38 -35 54q-40 20 -52 44zM164 742.5q0 -13.5 13 -13.5t13 13.5t-13 13.5t-13 -13.5zM193 835.5q0 -6.5 12 -14.5q15 -10 48 -10h11q27 4 35 11t10 30q4 33 16.5 35t55.5 -19 q25 -14 33 -14t12 14q4 8 4 16q0 13 -10 25q-19 22 -92 22h-6q-78 -1 -86 -26q-6 -23 -29 -47q-14 -16 -14 -22.5zM223 1075q-17 -1 -17 -11q0 -11 23 -34q24 -19 43 -19q6 -1 10 1q22 8 23 45q0 29 19.5 42t33.5 -7q10 -16 21.5 -14.5t11.5 19.5q0 17 -24 33q-26 14 -48 14 q-34 0 -55 -34q-23 -35 -41 -35z" />
<glyph unicode="t" horiz-adv-x="815" d="M27 1130q14 24 30 24q22 0 49 -44q26 -40 41 -40q6 0 11 7l2 19q0 18 39 47q35 29 43 57q6 31 43 35t37 27q0 25 10 34q6 6 20 6q7 0 17 -2q16 -2 22 -16t10 -61q2 -18 5.5 -35t6.5 -27t5 -8q12 2 51 55q25 35 41 45.5t45 10.5q45 0 80 -41q31 -39 32 -52.5t-32 -35.5 q-33 -20 -33 -37q0 -16 -18.5 -42t-98.5 -26q-57 0 -67 -5t-10 -36q0 -25 7 -34t27 -11h8q28 0 52 25q25 27 59 27h1q36 0 54 20q14 18 26.5 11t12.5 -36q0 -20 -7 -32.5t-23.5 -21.5t-42.5 -15q-41 -10 -109 -58q-72 -48 -72 -86q0 -21 21 -39q14 -10 23.5 -8t23.5 23 q27 31 27 57.5t26 19.5q25 -8 41 13q14 18 45 18q27 0 56.5 31t40.5 70q8 37 23 57t32.5 16t30.5 -32q6 -12 6 -28q-1 -26 -17 -64q-26 -60 -82 -119q-53 -61 -71 -99q-18 -37 -47 -55q-31 -12 -56 -35q-23 -21 -40 -21q-2 1 -4 1q-19 2 -56 32q-25 20 -42 25.5t-48 -0.5 q-41 -6 -57.5 5t-16.5 48q0 27 -39 35q-37 6 -52 27.5t3 44.5q20 20 43 20q20 0 63.5 59.5t43.5 90.5q0 23 -18 23q-1 0 -1 1q-19 0 -94 -14q-37 -7 -65 -7q-26 0 -42 6q-34 13 -61 69q-19 36 -19 60q0 12 5 21z" />
<glyph unicode="u" horiz-adv-x="888" d="M21 943q2 13 7 25.5t16 19.5t24 7q27 0 41 -26q14 -29 33.5 -25t31.5 39q18 39 49 59q30 20 30.5 40t-30.5 40q-33 23 -41 54q-2 8 -2 18q0 20 8 52q12 46 31 69q16 16 32 16h3q18 -2 29.5 -25.5t5.5 -54.5q-6 -27 0 -37t30 -22q39 -23 54 -6q12 14 27.5 5t15.5 -32 q0 -18 46 -36.5t56 -4.5q6 12 26.5 12t47.5 33q27 35 54 35q13 0 27 -8q35 -23 35 -86q0 -9 -1 -19q-2 -20 1 -28t12 -12.5t34 -8.5q43 -8 79.5 -30.5t36.5 -40.5q0 -29 -23.5 -39.5t-53.5 4.5q-29 11 -48 11q-20 0 -28 -12q-11 -16 -11 -60q0 -24 3 -56q0 -16 55 -45 q62 -32 62 -61q0 -15 -15 -29q-11 -14 -23 -15h-2q-12 0 -41 11q-35 16 -96 21t-213 10l-131 2l-31 47q-33 53 -53 67.5t-45 1.5q-27 -14 -33 -14q-10 0 -58 45t-58 64q-6 10 -6 20v5zM356 848q-2 -2 -2 -5q0 -12 32 -34q37 -25 63 -25h4q27 2 31.5 15.5t-15.5 23.5 q-37 16 -73 24.5t-40 0.5zM445 984.5q0 -11.5 20 -19.5q8 -4 24.5 -6.5t32 -2.5t28.5 2.5t17 6.5q8 8 -12.5 46t-38.5 44q-17 6 -24 6q-3 0 -5 -1q-6 -3 -22 -30q-20 -34 -20 -45.5zM563 846q0 -12 10 -12q6 0 15 4q14 6 18 18q5 9 5 15q0 7 -7 10q-3 2 -6 2q-4 1 -9 -3 q-9 -6 -17.5 -16t-8.5 -18z" />
<glyph unicode="v" horiz-adv-x="714" d="M22 1034q6 25 50 72q42 45 60 53q14 6 55 6h22h8q51 0 68.5 -11t64.5 -77q6 -10 10 -14q4 -6 31 11.5t45 2.5q11 -10 19 -10q18 0 22 47q2 23 -2 55q-4 18 -4 34.5t4 29.5q8 27 26.5 43t65.5 41q41 23 65 25h3q21 0 37 -19q13 -15 13 -32q0 -13 -8 -29q-18 -34 -59 -39 q-47 -6 -51 -27v-6q0 -22 26 -52q30 -34 52 -34q23 0 38 -26q13 -23 13 -52v-8q-4 -18 -16 -23.5t-53 -5.5q-35 0 -48.5 -4t-23.5 -14t-29 -45q-27 -45 -27.5 -57.5t17.5 -32.5q25 -27 16 -50q-10 -25 0.5 -33t30.5 5q23 14 45.5 -0.5t22.5 -42.5q0 -23 -25.5 -43.5 t-93.5 -55.5q-49 -25 -73 -25q-11 0 -17 5q-19 16 -19 35q0 25 33 55q25 25 25 49q0 6 -2 13q-8 51 -31 16l-14 -29q-27 -56 -56 -56q-20 0 -41 26q-20 27 -27 28.5t-24 -12.5q-15 -15 -30 -15q-27 0 -52 50q-20 43 -19 60.5t23 39.5q20 16 19.5 27.5t-25.5 56.5 q-37 66 -50 75t-36 -11q-29 -27 -51 -13q-24 15 -24 35q0 4 1 8zM295 969l27 -37q25 -35 49 -58q12 -10 19 -10h2q7 2 20 19q18 24 18 35.5t-18 11.5q-17 0 -35.5 19.5t-48.5 19.5h-33z" />
<glyph unicode="w" horiz-adv-x="835" d="M23 1075q-3 6 -3 12q0 12 11 23q12 14 25.5 15t43.5 -7q27 -8 46 -8q16 0 26 6q23 12 66 68q27 39 45 52t41 13q65 0 65 -95q1 -48 17 -56q4 -2 10 -2q18 0 53 18q33 17 51 17q10 0 15 -5q4 -4 10 -4q17 0 53 21q47 26 76 26h2q27 0 65 37q23 23 33 26t25 -9 q18 -16 18 -45t-38 -66t-68 -37q-48 0 -48 -21q0 -17 33 -48q20 -16 49 -37q35 -27 47.5 -43.5t10.5 -36.5q-4 -20 -19.5 -31.5t-66.5 -28.5q-92 -33 -86 -65q4 -8 12 -16q14 -8 14 -20.5t-16 -26t-45 -27.5q-55 -24 -76 -24h-4q-20 3 -45 48q-23 35 -30 39t-19 -16 q-20 -27 -15 -39t48 -39q107 -69 107 -123q0 -4 -1 -8q-4 -35 -31.5 -35t-60.5 37q-39 41 -102 70q-61 27 -94 53.5t-64 71.5q-29 41 -31 63.5t21 34.5q16 10 16 15t-16 22q-20 25 -21.5 40t19.5 31q17 15 17 47q0 6 -1 13q-2 29 -12.5 36t-61.5 11q-96 10 -116 53zM297 938 q0 -8 20.5 -37t42.5 -53q19 -21 26 -22q1 0 1 1q10 4 10 76q0 70 -14 74t-50 -12.5t-36 -26.5zM486 992q6 -10 28 -13q18 -2 23.5 -10t3.5 -31q-2 -33 9 -33h1q18 2 24 47v23.5t-4 15.5t-10 10.5t-18 8.5q-31 12 -36 12t-13 -8q-10 -8 -10 -16q0 -3 2 -6z" />
<glyph unicode="x" horiz-adv-x="851" d="M20 1231q0 20 33 53q29 29 59 30h3q29 0 45 -26q14 -25 -2 -49q-14 -23 -7 -33t35 -10q12 0 28.5 -6t34 -15.5t33 -18.5t31 -19.5t23.5 -14.5q27 -12 33 -57t24 -53q14 -4 15.5 16.5t-15.5 52.5q-14 31 -0.5 53.5t45.5 22.5q25 0 64 39q55 53 168 53q43 0 78 29 q32 25 55 25q11 1 19 -5q13 -8 13 -24q0 -17 -16 -43q-20 -31 -50 -47.5t-83 -24.5q-41 -6 -48 -14t-5 -37q4 -27 -4 -41t-35 -37l-45 -35l45 -34q37 -29 40 -47.5t-24 -45.5q-18 -16 -20 -22t12 -12q18 -12 35 -39q8 -16 5 -23.5t-26 -15.5q-27 -10 -31.5 -23.5t11.5 -23.5 q29 -18 2 -29l-27 -6q-39 0 -62.5 27.5t-37.5 27.5q-18 0 -39.5 -24.5t-21.5 -45.5q0 -33 -38 -49q-29 -12 -66 -12q-12 0 -24 1q-52 5 -85 32q-35 27 -36 58.5t32 39.5q43 8 48 31.5t-28 52.5q-25 20 -29 31.5t4 25.5q14 25 35 25t56 43l34 41l-28 41q-30 42 -41 42 q-8 0 -8 -18q0 -39 -33 -28q-33 14 -35 49q0 25 -39 43q-35 18 -72 60t-37 63z" />
<glyph unicode="y" horiz-adv-x="958" d="M39 854q-20 15 -20 30q0 18 34 36q23 10 56 16q74 14 92 36.5t22 100.5q2 57 7.5 73.5t21.5 20.5q27 6 43 -18q18 -25 34.5 -8.5t65.5 16.5q52 0 60 12q6 14 24 15q18 0 33.5 -20.5t9.5 -33.5q-10 -14 17 -26q29 -14 35 -11t10 33q2 23 10 30t27 7q23 0 29.5 -9t11 -43 t12.5 -45t35 -19q11 -3 23 -3q32 0 73 21l55 31l39 -27q37 -31 41 -59q1 -4 1 -8q0 -19 -17 -27q-21 -10 -41 8q-14 10 -22.5 9t-22.5 -13q-23 -20 -60 -31q-41 -10 -44 -45v-5q0 -33 34 -73q35 -37 37 -60.5t-27 -41.5q-16 -8 -25.5 -6t-21.5 18q-20 27 -86 29 q-63 0 -63 -10q0 -12 -35 -49l-33 -41l45 -27q35 -20 59 -67q15 -32 15 -55q0 -12 -4 -21q-10 -27 -45 -19t-43 39q-9 39 -32 39q-25 0 -67 -45q-31 -33 -48 -40q-13 -5 -36 -5h-14q-33 4 -42 10t-9 27q0 20 8 28.5t33 10.5q39 4 50 16t-3 39t-32.5 27t-24.5 -27 q-6 -16 -17.5 -25.5t-35 -17.5t-29.5 -12q-25 -12 -35 -4q-13 7 -13 58v7q1 57 15 72q16 16 0 33q-18 18 -18 47q0 8 1 18q7 41 35 59q28 19 28 28t-26 9q-43 0 -131 -22q-33 -8 -59 10zM260 675q0 -13 14 -13q18 0 0 20q-6 6 -10 6t-4 -13zM420 961q0 -19 13 -19q4 0 9 2 q17 9 23 25q3 12 3 19q0 16 -11 16q-20 -2 -33 -29z" />
<glyph unicode="z" horiz-adv-x="811" d="M20 1011q0 7 15 21q14 14 28.5 13.5t59.5 -21.5q54 -25 106 -25h15q41 2 50 9.5t13 33.5q1 5 1 11q0 35 -23 65q-25 35 -25 63q0 16 8 30q22 38 97 38q18 2 178 4q117 1 125 21q3 15 42 15q9 0 19 -1q37 -2 48 -9t14 -26q1 -5 1 -10q0 -10 -6 -16q-8 -10 -30 -21 q-43 -18 -70 -55q-20 -25 -22 -36t10 -32q14 -27 8 -50t-27 -23q-16 0 -43 -35q-12 -20 -24.5 -25.5t-32.5 -1.5q-25 6 -38 -1t-36 -34q-37 -41 -30 -45q4 -4 45 11q25 10 43 10q13 -1 21 -5q22 -10 13 -42q-6 -29 4.5 -33t28.5 20q16 18 42 17.5t42 -21.5q14 -25 47 -43 q35 -16 30 -42.5t-48 -45.5q-47 -18 -101 -65q-48 -43 -68 -45h-2q-20 0 -48 28q-18 20 -42 27.5t-81 11.5q-94 4 -113 31q-19 23 -19 48q1 8 3 16q8 34 51 81q45 47 45 61q0 3 -2 5q-6 10 -82 10q-59 0 -131 26.5t-96 57.5q-13 17 -13 24zM479 1130q-4 -6 -3 -16 q0 -12 5 -31l8 -34l39 34q39 38 39 50q-1 6 -21 9q-9 1 -17 1q-13 0 -25 -2q-22 -4 -25 -11zM526 714.5q0 -14.5 27 -14.5t27 14.5t-27 14.5t-27 -14.5z" />
<glyph unicode="{" horiz-adv-x="530" d="M23 852q-4 18 7 25.5t60 17.5q37 8 51 41q10 20 5 34.5t-31 45.5q-41 49 -41 65t36.5 68.5t69.5 83.5q27 23 80 40t102 17q41 0 66 27q39 43 70 10q18 -16 14 -29.5t-39 -54.5q-29 -31 -46 -39t-65 -8q-72 0 -100.5 -20.5t-28.5 -71.5q0 -35 7.5 -48.5t33.5 -25.5l39 -22 v-150q0 -113 6.5 -140.5t42.5 -80.5q74 -111 9 -121q-16 -2 -31.5 10.5t-42.5 46.5q-41 61 -53 62q-8 0 -10.5 -22.5t4 -51.5t16.5 -43q20 -29 63 -33t41 -14q-2 -16 -88 -16q-41 0 -57 2t-25.5 8t-17.5 22q-16 37 -16 156q0 102 -14.5 134t-65.5 44q-47 8 -51 31zM180 840 q18 -20 28.5 -16.5t10.5 32.5q0 53 -37 16q-16 -14 -2 -32z" />
<glyph unicode="|" horiz-adv-x="2086" d="M20 -142.5q0 13.5 1024 13.5t1024 -13.5t-1024 -13.5t-1024 13.5z" />
<glyph unicode="}" horiz-adv-x="534" d="M23 1229q8 20 150 20t151 -20q6 -20 -15 -43q-29 -35 -52.5 -92.5t-23.5 -96.5q0 -68 17.5 -95.5t66.5 -35.5q33 -8 45.5 -15t12.5 -22q0 -27 -27 -30q-63 -10 -57 -27q8 -20 110 -29q123 -12 113 -53q-2 -10 -12 -20q-20 -18 -121 -11q-92 10 -121 17q-12 4 -17 -10.5 t-10 -57.5q-4 -51 -10 -62t-30 -11q-23 0 -28 13t-9 81q-4 92 -33 123q-18 20 -21.5 43.5t2.5 109.5q10 127 31 154q18 33 19 51q0 29 -26 51.5t-56 22.5q-31 0 -43 12.5t-6 32.5z" />
<glyph unicode="~" horiz-adv-x="264" d="M21.5 1092.5q3.5 29.5 37.5 37.5q35 6 39 48q5 36 25 63q23 23 31 23q16 0 28.5 -23.5t12.5 -52.5q0 -45 26 -58q27 -16 25 -42.5t-31 -38.5q-31 -10 -45 -52q-14 -41 -41 -41q-16 0 -29.5 9.5t-19.5 24t-2 26.5q8 20 -27 33q-33 14 -29.5 43.5z" />
<glyph unicode="&#xa2;" horiz-adv-x="2086" d="M20 -142.5q0 13.5 1024 13.5t1024 -13.5t-1024 -13.5t-1024 13.5z" />
<glyph unicode="&#xa3;" horiz-adv-x="487" d="M31 1389q14 16 36.5 -0.5t43.5 -61.5l28 -61l45 22q74 37 144.5 15.5t111.5 -93.5q20 -33 20.5 -41t-18.5 -22q-25 -16 -37 -11t-38 48q-33 47 -78 51q-33 2 -70 -16.5t-37 -36.5q0 -23 60.5 -84.5t87.5 -67.5q39 -6 59 -41q16 -25 17.5 -34t-15.5 -21q-12 -14 -23.5 -15 t-35.5 9q-29 12 -56.5 13t-43 -7t-13.5 -25q0 -6 2 -20.5t4 -34.5t4 -35l11 -63l114 -4q102 -2 111 -15q4 -6 4 -22v-33h-428v31q0 20 10 29.5t43 19.5q41 10 47 20.5t4 57.5q-2 53 -16 76.5t-45 27.5t-35 34t25 44q45 25 -21 199q-53 137 -22 168z" />
<glyph unicode="&#xa7;" horiz-adv-x="2086" d="M20 -142.5q0 13.5 1024 13.5t1024 -13.5t-1024 -13.5t-1024 13.5z" />
<glyph unicode="&#xad;" horiz-adv-x="583" d="M25.5 926.5q17.5 23.5 74.5 23.5q111 4 193 60q51 35 94 51q45 14 99.5 13t68.5 -19q23 -27 1.5 -46.5t-75.5 -25.5q-35 -4 -50 -10t-24.5 -19.5t-19.5 -40.5q-6 -25 -49 -24q-45 0 -70 -21q-31 -23 -112.5 -20.5t-112.5 26.5q-35 29 -17.5 52.5z" />
<glyph unicode="&#xbf;" horiz-adv-x="2086" d="M20 -142.5q0 13.5 1024 13.5t1024 -13.5t-1024 -13.5t-1024 13.5z" />
<glyph unicode="&#xc0;" horiz-adv-x="970" d="M22 983q1 8 15 25.5t39.5 22.5t95.5 5q78 0 98.5 5.5t34.5 27.5q23 33 11.5 47t-58.5 14q-51 0 -86 13.5t-35 32.5q0 51 144 45q66 -2 79 1.5t23 34.5q6 23 10 33t13.5 21.5t24.5 14.5t40 1q29 -2 41 -10t25 -33q29 -70 44 -89t48 -26q45 -10 110.5 -67.5t75.5 -95.5 q8 -37 -13.5 -57.5t-58.5 -10.5q-51 12 -57 -7.5t23 -96.5q35 -98 52 -113.5t81 -1.5q61 12 87.5 4t20.5 -37q-2 -18 -18.5 -28.5t-65.5 -26.5q-90 -25 -129 -23t-53 33q-23 53 -57 23q-16 -12 -146 -64q-90 -35 -113.5 -40t-39.5 9q-45 49 47 86q180 72 190 95q4 12 -18 30 q-18 16 -129 13l-111 -5l-35 -88q-25 -59 -37 -72.5t-42 -17.5q-39 -4 -39 17q-2 23 51 159q55 143 47 154q-10 14 -105 6q-61 -4 -82.5 -2t-33.5 17q-10 14 -9 22zM349 884.5q9 -10.5 50 -10.5q39 0 43.5 10.5t-18.5 41.5q-20 29 -39.5 28.5t-32.5 -28.5q-12 -31 -3 -41.5z M360 1548q16 16 42 6t53 -41q35 -45 116 -65q92 -27 117 -35q31 -12 55.5 -60t20.5 -87q-6 -45 -43 -41t-47 45l-2 16q0 27 -33 45.5t-123 38.5q-72 16 -119 70q-70 77 -37 108zM412 1092q-8 -12 5 -20.5t54 1t41 19.5t-46 10t-54 -10zM512 965q0 -18 33 -50q33 -23 35 -8 q-1 20 -15 49q-16 33 -43 25q-8 -6 -10 -16z" />
<glyph unicode="&#xc1;" />
<glyph unicode="&#xc2;" horiz-adv-x="888" d="M23.5 751.5q-7.5 24.5 5.5 39.5q12 16 37.5 18t33.5 -14q18 -29 41 22q4 12 13 31l22 67l-41 48q-20 25 -33.5 49t-17.5 43.5t4 31.5q12 23 40 15t44 -39q8 -16 19.5 -26.5t15.5 -10.5q18 6 64 133t34 137q-8 12 -30.5 -13.5t-42 -40.5t-44.5 20q-23 41 -6 88t54 47 q16 -1 65 73q31 49 47.5 61.5t44.5 12.5q31 0 47.5 -11t44.5 -52q53 -70 66.5 -104t-2.5 -54q-18 -20 -51 -12q-23 6 -26 1t3 -32q8 -33 57.5 -82t81.5 -57q31 -10 117 4q57 12 88 4t41 -33.5t10 -85.5q0 -84 -20 -102q-27 -20 -46.5 -1t-23.5 66l-4 54h-100 q-100 2 -101 -17q0 -31 35 -109.5t62 -107.5q35 -41 44 -71.5t1 -75.5q-6 -31 -14.5 -38t-36.5 -3q-29 2 -40.5 14t-29.5 61q-20 53 -30.5 63.5t-43.5 10.5q-20 0 -28.5 -1t-21.5 -16.5t-22.5 -35t-33.5 -74.5q-14 -27 -50 -22.5t-69 37.5q-68 68 -117 -9 q-23 -33 -57.5 -32.5t-50.5 30.5q-41 76 -48.5 100.5zM295 799q0 -12 27 -37q16 -16 22 -16.5t12 14.5q8 23 -2 35q-4 8 -18 12t-27.5 1t-13.5 -9zM299 958.5q4 -20.5 49 -43.5q39 -20 97.5 -25t68.5 9q6 13 -31 105q-27 68 -38 81t-48 15q-35 4 -46 -4.5t-29 -53.5 q-27 -63 -23 -83.5zM326 1403q6 -8 47 22.5t41 42.5q0 2 -2 4.5t-5.5 4.5t-9.5 2q-10 0 -30.5 -16.5t-34 -36t-6.5 -23.5zM381 1204q0 -8 6 -13t14.5 -1t8.5 12t-7.5 13.5t-14.5 1t-7 -12.5z" />
<glyph unicode="&#xc4;" horiz-adv-x="718" d="M20 686q-2 31 62 39l37 4q70 0 88 23.5t18 107.5q0 55 5.5 72.5t19.5 19.5q27 6 46 48t11 77q-10 43 -55 74q-37 29 -44 60.5t17 52.5q21 18 21 53t10 44t47 9q39 0 51 -33q10 -33 32 -32.5t42 34.5q23 33 66 29q27 -2 34 -10t11 -37q8 -72 -101 -92q-47 -8 -45 -23 q2 -8 19 -14q18 -6 34 -70q12 -43 20.5 -51t33.5 -2q35 8 47 -7t12 -65q2 -25 5 -34t11.5 -13t32.5 -6q72 -6 88.5 -51t-32.5 -100q-51 -57 -58.5 -86t15.5 -84q23 -68 16 -74q-8 -10 -39 -8t-37 14t-37 12q-27 0 -63 41q-27 29 -45.5 34t-77.5 3t-72.5 -9t-25.5 -42 q-6 -20 -13.5 -29.5t-16.5 -13.5t-26 -4q-20 0 -28.5 5t-3.5 15q12 47 2.5 61.5t-52.5 16.5q-80 6 -82 41zM386 773.5q5 -15.5 48 -32.5q39 -16 51 -3.5t-4 55.5q-16 37 -27.5 40t-45.5 -24q-27 -20 -22 -35.5zM549 833.5q6 -12.5 20 -12.5q13 1 13 21q0 14 -10.5 18 t-20.5 -6q-8 -8 -2 -20.5z" />
<glyph unicode="&#xc7;" horiz-adv-x="995" d="M20.5 1076q-0.5 9 14.5 32q23 35 78 49q70 16 97.5 34.5t35.5 51.5q41 187 213 242q68 23 163 14.5t154 -41.5q61 -35 76 -20q18 18 49 11t53 -38q41 -59 15 -117q-20 -47 -56 -18q-6 4 -14 12q-23 29 -30 29t-3 -72q0 -72 -35 -143q-39 -76 -42 -99.5t18 -54.5 q27 -41 25.5 -102.5t-29.5 -110.5q-18 -35 -32.5 -45t-47.5 -12q-29 -2 -40 -9t-15 -28q-16 -66 -127 -57q-63 4 -66 26q-2 10 1 15.5t13.5 7.5t32.5 2q102 0 76 78q-14 35 -59 43q-33 8 -46.5 2t-37.5 -37q-31 -37 -69 -45t-58.5 16.5t-48.5 212.5q-4 16 -8.5 27.5 t-11.5 21t-17.5 16.5t-25.5 14t-34.5 12t-46.5 12q-31 8 -60.5 20t-37.5 21q-16 18 -16.5 27zM346 1092q-8 -10 25 -41l30 -31l43 31q41 29 41 41q0 4 -13 7t-32.5 4t-40 0t-36 -4t-17.5 -7zM352 1223.5q0 -13.5 13.5 -13.5t13.5 13.5t-13.5 13.5t-13.5 -13.5zM425 893.5 q1 -19.5 34 -19.5q8 0 18 7.5t20.5 16.5t19.5 21.5t15.5 24t6.5 21.5q0 31 -43 10q-23 -12 -43 -31q-29 -31 -28 -50.5zM448.5 1314q-4.5 -3 0.5 -11q4 -18 22 -23q8 -4 11 0t1 12q-6 16 -24 23q-6 2 -10.5 -1zM520 1413q-2 -2 2 -7t13.5 -11t21.5 -13.5t24.5 -13.5 t24.5 -12t22.5 -9.5t16.5 -3.5q12 0 33.5 29t15.5 35q-12 12 -90 15t-84 -9zM580 854q-6 -12 14 -16q8 -2 18 -2q23 0 54.5 9t51 22.5t15.5 21.5q-8 12 -18 10q-2 0 -10.5 -1t-21.5 -3t-24 -2q-68 -8 -79 -39zM648 745.5q-3 -8.5 1 -12.5q8 -8 22.5 1t14.5 21.5t-12 12.5 q-8 0 -15.5 -7t-10.5 -15.5z" />
<glyph unicode="&#xc8;" horiz-adv-x="772" d="M23 1032q12 33 92 -2l12 -3t7 9.5t3 24.5v47q0 57 -5 74.5t-30 31.5q-31 23 -28.5 51.5t37.5 39.5q29 8 125 10q90 4 90 12t-58 66l-55 57l33 35q31 33 69 33q23 0 39.5 -13.5t44.5 -58.5q47 -72 117 -107q98 -49 115 -104q12 -43 -43 -49q-39 -4 -68 24 q-14 12 -27.5 17.5t-44 7.5t-83.5 0l-127 -4l-5 -43q-2 -31 13.5 -45.5t95.5 -55.5q109 -55 170 -63q45 -6 54 -15.5t18 -58.5q6 -41 4 -58.5t-19 -35.5q-20 -23 -41 -63q-14 -37 -47 -37q-16 0 -63 15t-94.5 34.5t-59.5 30.5q-29 25 -31 -29q-2 -16 0 -41q6 -51 56.5 -70.5 t177.5 -21.5q106 0 136 -11.5t30 -50.5q0 -29 -21.5 -39t-48.5 7q-27 16 -65 2q-41 -18 -101 -9q-102 10 -155 17q-61 6 -79 12t-26 27q-10 31 -53 53q-43 20 -39 50t49 34q33 2 38 11t5 59q0 45 -7 59t-38 35q-86 53 -69 102zM299 930q0 -14 33 -31.5t64.5 -24t41.5 2.5 q8 11 -35 38q-23 14 -47 21.5t-40.5 5.5t-16.5 -12zM424 1149q6 16 18.5 18t46.5 -4q45 -8 150 -18q72 -6 97.5 -23.5t13.5 -50.5q-8 -23 -76 -22q-109 0 -186.5 31.5t-63.5 68.5z" />
<glyph unicode="&#xc9;" horiz-adv-x="835" d="M24.5 1148q-16.5 52 41.5 109l45 48h157h83t45.5 3t20.5 6t3 11q-4 31 -62 53q-2 2 -1 6.5t4.5 11.5t7.5 16t8 19.5t9 19.5t10.5 17.5t9.5 14.5q16 16 54 21t48 -11q8 -14 -14 -31q-18 -20 -10 -56t37.5 -68.5t60.5 -32.5q25 0 37 -11.5t30 -48.5q53 -106 -14 -160 q-27 -18 -41 -18t-72 20q-63 25 -146 36.5t-91 -3.5q-4 -4 12 -22.5t41 -38.5q45 -33 70.5 -41t99.5 -10q80 -4 94 -9.5t14 -29.5q0 -8 -1 -14.5t-4 -10.5t-9 -6t-14 -3t-21 -3q-45 -4 -49 -12.5t27 -40.5q29 -27 30 -54q4 -57 35 -6q8 12 17 29q41 84 116 113q66 25 72 -27 q2 -4 2 -10q0 -25 -8 -34t-35 -18q-35 -8 -51 -29.5t-27 -74.5q-10 -45 -32 -72q-20 -25 -21 -61v-35h-455l-8 438l-51 21q-88 37 -104.5 89zM274 713q0 -80 68 -13q39 37 39 45q0 6 -53 7q-37 0 -45.5 -6.5t-8.5 -32.5zM279 907q-12 -33 42 -57.5t87 -1.5q12 8 9.5 16 t-22.5 31q-27 29 -66.5 33t-49.5 -21zM449 1212q0 -4 5 -7t12 -6t16.5 -6t19.5 -5t18 -4t15.5 -4t11.5 -2q20 -10 22 -2q2 12 -26 28l-6 4q-20 8 -41 12.5t-34 2.5t-13 -11zM528 675q0 -13 47.5 -13t47.5 13t-47.5 13t-47.5 -13z" />
<glyph unicode="&#xca;" horiz-adv-x="770" d="M20 1180q-6 49 30 64.5t69 -21.5q27 -29 53 -23q18 2 24.5 18.5t10.5 71.5q4 57 10 72.5t27 19.5q27 2 27.5 13.5t-25.5 19.5q-23 6 -26 32t20 44q20 16 45 6q26 -6 65 41q23 29 39.5 38t44.5 9q33 0 48.5 -10t41.5 -49q43 -57 43 -68q0 -25 -51 6q-20 12 -39 29 q-31 33 -41 35t-28 -17q-47 -41 -9 -94q12 -16 39 -22t99 -11q86 -6 102 -11t16 -30q0 -23 -10 -28.5t-47 -7.5q-51 -4 -55 -15q-6 -14 65 -14q68 0 101 -33q49 -51 42.5 -95t-65.5 -50q-31 -2 -37 -11.5t-8 -46.5q-2 -53 25 -84t14.5 -53t-57.5 -26q-41 -4 -60 -43 q-18 -33 -41 -54q-37 -29 0 -37q18 -4 62.5 -6t58.5 -5t19.5 -9t5.5 -25v-32l-230 -4q-223 -4 -248 18q-16 16 0 57q18 39 13 90q-2 37 -11.5 46.5t-50.5 15.5q-49 8 -79.5 30.5t-26.5 47.5q6 20 84 20h80v53q0 39 -7.5 48.5t-46.5 17.5q-119 25 -125 72zM303 829 q-6 -41 11.5 -47t74.5 21q41 18 61.5 36.5t43.5 57.5l34 64l-30 24q-33 25 -107 25q-180 0 21 -72q23 -10 18 -39q-2 -14 -7 -20.5t-17.5 -8.5t-38.5 -2q-41 0 -51.5 -6t-12.5 -33zM303 1208q2 -20 8 -30.5t23.5 -19.5t58.5 -23q49 -18 93 -30.5t68 -12.5t28 8q0 14 -47 22 q-45 10 -101 47q-51 41 -65 41q-11 1 -29 21q-20 23 -30.5 16.5t-6.5 -39.5z" />
<glyph unicode="&#xcb;" horiz-adv-x="796" d="M20.5 1137.5q-0.5 17.5 12.5 68.5q10 45 19 61.5t26 16.5q27 0 43 -33.5t33 -33.5q18 0 22 59t-12 96q-31 74 59 82q41 4 49 37q8 35 47 41q6 2 52 12q14 2 37.5 -22.5t23.5 -38.5q0 -20 10 -19q14 2 21 31q2 16 11 22.5t32 6.5q27 0 34 -6.5t7 -32.5q0 -29 -7.5 -35 t-39.5 -6q-31 0 -39 -6t-8 -27q0 -23 13 -31t75 -16q70 -10 88 -30.5t-13 -53.5q-20 -25 -26 -49q-4 -31 -37 -29t-41 33q-4 20 -22.5 25.5t-96.5 7.5l-114 2l-5 -78q-6 -111 15 -111q8 0 16 9q23 16 54.5 3.5t59 -11.5t27.5 34q0 29 33 48.5t60 6.5q20 -10 51 -69.5 t31 -87.5q0 -18 16 -45q14 -25 -4 -62t-6 -41q72 -27 116 -92q31 -45 35 -69.5t-18 -42.5q-23 -18 -50.5 -3t-41.5 56l-15 47h-106q-109 0 -146 12q-27 8 -31.5 5t-0.5 -25q2 -23 21.5 -29t115.5 -10h2q98 -4 115.5 -9.5t17.5 -31.5v-33l-225 -4q-158 -2 -193 1t-45 21 q-14 27 -69 31q-39 4 -59.5 17.5t-19.5 28t23.5 26.5t61.5 12q31 0 41 3t14 12.5t6 35.5q2 20 0 32.5t-8 19t-23 12.5q-35 12 -34 22q0 2 7 22.5t17 48.5t19.5 56.5t15.5 50t2 23.5q-8 10 -61 -8q-37 -10 -50.5 -9t-27.5 13q-12 12 -12.5 29.5zM302 1376q-3 -8 1 -14 q8 -8 28.5 1t20.5 21t-18 13q-10 0 -19.5 -6.5t-12.5 -14.5zM385 948q-8 -18 2 -31.5t33 -13.5q33 0 20.5 32t-34.5 32q-14 0 -21 -19z" />
<glyph unicode="&#xce;" horiz-adv-x="796" d="M20 1196q-4 14 158 174t195 174q29 12 100 8q100 -6 92 -43q-6 -16 -22 -30q-27 -23 -47 -31q-14 -8 2 -25q29 -33 0 -39q-37 -6 -74 29l-10 10q-14 16 -34 4t-116 -100q-12 -12 -19 -18t-19.5 -17.5t-24.5 -21.5q-80 -72 -111 -92.5t-43 -12.5q-23 14 -27 31zM152 655 q0 20 22.5 30.5t77.5 14.5l67 9q4 104 9 206l-60 25q-59 29 -67 49q-20 51 3 104.5t79 80.5q20 8 29.5 22t11.5 41v10q2 29 4 40t13 20.5t34 7.5q12 -2 19 -4t12.5 -7.5t8.5 -13.5t5 -20q4 -25 12 -32t35 -7q43 0 43 -28.5t-43 -72.5q-33 -33 -40 -51t-7 -67 q0 -53 17.5 -107.5t21.5 -95.5q6 -47 2 -73.5t-25 -71.5l-30 -70l-111 8q-84 8 -113.5 18.5t-29.5 34.5zM291 1067q-4 -23 6 -33q18 -20 25 13q4 23 -7 32q-18 18 -24 -12zM500 1337q0 68 112 56q68 -10 88 4q43 29 72 -15q14 -23 -18 -59q-20 -23 -40 -27t-85 -2 q-76 2 -102.5 11.5t-26.5 31.5z" />
<glyph unicode="&#xcf;" horiz-adv-x="724" d="M28.5 1069.5q-18.5 20.5 4.5 44.5q23 20 106 23h84v186h-80q-55 0 -68.5 5t-15.5 26q-4 25 25 41t80 16q37 0 39 12q2 10 -25 17h-4q-23 4 -33 25t0 48q8 18 45 15q16 -2 24.5 -6t10.5 -13.5t4 -29.5q0 -35 7.5 -41t45 -6t45 6t7.5 41q0 23 3 31t10 11t28 3q25 0 34 -6.5 t11 -24.5q6 -33 -21 -51q-31 -23 8 -33q25 -4 89 -8q66 -4 87 -11.5t35 -27.5q20 -33 13 -51q-6 -16 -37 -19.5t-45 11.5q-14 12 -117 16l-104 8v-57q0 -59 19 -68.5t83 8.5q74 16 89 1t1 -37q-14 -23 -70 -54q-2 0 7.5 -10t25.5 -27q80 -68 -71 -67h-78l-4 -94 q-4 -41 0 -66t10 -34t29 -25q37 -29 58 -23t21 45q0 25 10.5 41.5t38 33.5t89.5 48q61 31 78.5 35t31.5 -10q25 -25 6.5 -62t-57.5 -41t-45 -26q-12 -29 -47 -68q-37 -43 -37 -57q0 -18 -50 -33.5t-77 -5.5q-39 14 -49 12t-17 -27q-6 -27 -45 -22l-36 4q-8 184 -15 369 l-39 20q-37 18 -88 19q-49 0 -67.5 20.5z" />
<glyph unicode="&#xd1;" />
<glyph unicode="&#xd3;" />
<glyph unicode="&#xd4;" horiz-adv-x="1087" d="M29 1114q-16 29 1 66t72 98q29 31 45.5 44t31 17t38.5 4q53 0 80 -14q18 -8 33.5 -6t46.5 20q53 29 90 41q66 23 165 1.5t150 -68.5q14 -12 49 -26.5t50 -41.5q14 -31 71 -47q20 -6 36 -13t26 -15.5t13 -16.5t0 -17.5t-13 -17.5q-27 -16 -72 -10q-33 6 -40 2t-3 -27 q4 -20 17.5 -27t68.5 -11q33 -2 49.5 -5.5t24.5 -9.5t10 -16q6 -29 -21.5 -45.5t-78.5 -16.5q-47 0 -63.5 -16t-33.5 -76q-16 -57 -78.5 -119.5t-117.5 -80.5q-49 -14 -112.5 -15.5t-96.5 10.5q-31 12 -117 -2q-53 -10 -72.5 -8t-31.5 17q-16 14 -15.5 22t17.5 27 q25 27 43 26q16 0 16 7q-2 10 -33 67q-27 51 -86 109.5t-86 58.5q-20 0 -34 27q-18 33 7 56.5t79 23.5q49 0 65.5 14t32.5 74q14 53 -2 69q-25 25 -66 -9t-86 -116q-14 -27 -35.5 -28.5t-33.5 20.5zM354 1135q4 -6 17.5 2t20.5 19t-1 20q-8 4 -19.5 -4.5t-17.5 -20.5t0 -16z M383 905q-6 -70 18 -98l23 -31l68 49q70 49 81 49q43 0 2 44q-13 12 -36 28q-37 27 -69 43.5t-50.5 17.5t-22.5 -12q-8 -31 -14 -90zM428 1458q0 11 43 68q14 20 23.5 30.5t19.5 17.5t20.5 9t28.5 2q31 0 47.5 -10t42.5 -49q43 -57 43 -68q0 -25 -51 6q-20 12 -39 29l-43 43 l-45 -43q-49 -47 -82 -43q-8 0 -8 8zM483 1096q0 -14 105.5 -81t136.5 -75q37 -6 51 6q14 14 13 83t-15 85q-16 16 -98 16q-86 1 -94 13q-14 25 -57.5 3t-41.5 -50zM537 743q2 -14 30 -14q37 0 76 15.5t39 29.5q0 20 -12.5 24.5t-40.5 -3.5q-86 -25 -92 -52z" />
<glyph unicode="&#xd6;" horiz-adv-x="933" d="M20 987q4 20 20.5 24.5t98.5 4.5h113l10 119q8 113 38 177t91 97q55 31 55 43q0 27 -59 4l-49 -26q-43 -29 -70.5 -28t-31.5 32q-4 29 55 71q61 46 61 66q4 51 48 43t77 -49q35 -43 48.5 -44t17.5 42q2 16 4 23t7 12.5t14.5 6.5t25.5 1q33 0 40 -7.5t7 -40t-7 -41 t-44 -10.5q-35 -4 -42 -10t-5 -31q4 -35 29.5 -38t62.5 28q45 39 83 35t79 -51q47 -55 84 -70q39 -14 33.5 -44t-48.5 -34q-39 -2 -104 54q-57 51 -73.5 42.5t11.5 -73.5q25 -59 35 -115q6 -53 33 -78q25 -23 67 -109.5t37 -107.5q-4 -23 -36 -22q-20 0 -31.5 10t-26.5 41 q-25 49 -37 49q-16 0 -22 -40t6 -73q16 -39 2 -57q-14 -16 -36.5 -17t-39.5 13q-14 14 -55 -6q-66 -33 -152 -12.5t-131 81.5q-18 27 -38.5 35t-92.5 13q-94 6 -130 21t-32 46zM340 1034q0 -12 74 -12q72 0 102 -12q25 -14 23 -2q-3 12 -23 55q-23 47 -49 49 q-20 2 -73.5 -29.5t-53.5 -48.5zM393 918q0 -29 50.5 -43.5t100.5 -4.5t50 45q0 27 -13.5 27t-13.5 -20q0 -23 -21.5 -28t-47.5 13q-10 6 -23.5 11.5t-28 7.5t-25.5 3t-19.5 -2t-8.5 -9zM393 1217q-29 -37 8 -29q47 14 72 39q0 8 -16.5 10t-36 -4t-27.5 -16zM569 1288 q-20 -23 29 -59q43 -29 49 -6q0 14 -12 47q-10 27 -27.5 32t-38.5 -14zM602 1106q-6 -10 13.5 -40t33.5 -30q13 1 13 17q0 12 -12.5 28.5t-28 24.5t-19.5 0z" />
<glyph unicode="&#xd9;" horiz-adv-x="1050" d="M22.5 792.5q-14.5 36.5 30.5 57.5q25 10 90.5 3t110.5 -24q14 -6 17 -4t1 19q-4 25 -36 28q-61 10 -65.5 44t50.5 71q47 31 51 48.5t-26 49.5l-29 31l29 41q29 39 28 92q0 55 25 64q29 8 43 18q45 25 73.5 -4t39.5 -110q18 -141 32 -142q12 0 50 55q27 39 29.5 55.5 t-7.5 55.5q-14 55 6 76q18 20 42 5t46 -62q20 -45 47 -42t33 52q2 27 10.5 34t32.5 7q29 0 36 -8.5t11 -39t13.5 -40t40.5 -13.5q43 -6 61 -29.5t1 -44t-62 -20.5q-53 0 -54 -12q0 -12 109 -121q123 -121 92 -141q-8 -6 -35 -6q-33 0 -74 22q-27 16 -36 15t-29 -17 q-27 -25 -27 -39q0 -35 -21.5 -82t-51.5 -84q-31 -37 -49.5 -47t-55.5 -10q-53 0 -84 -29q-25 -20 -35 -21t-41 13q-106 51 -163 51q-43 0 -95.5 33t-74.5 74q-25 41 -64 41q-51 0 -65.5 36.5zM383 772q20 -45 47 -72q33 -31 98.5 -37t102.5 17q80 51 -53 84q-8 2 -15 4 q-63 14 -78.5 22.5t-15.5 30.5q0 25 9 29t44 4q59 0 109 -6q39 -4 46 1t11 38q4 43 -12 84q-47 115 -92 -6q-14 -35 -43 -35q-16 0 -65.5 -34t-67.5 -34q-61 0 -25 -90zM449 1505q0 6 8 9.5t20 3.5t24.5 -2.5t24 -6.5t17.5 -10q14 -18 43 -24q27 -4 41 -26t6 -44 q-8 -20 -64 -21q-27 0 -38 3.5t-18 11.5t-17 31q-18 45 -33 55q-14 8 -14 20z" />
<glyph unicode="&#xda;" />
<glyph unicode="&#xdb;" horiz-adv-x="948" d="M20.5 1067q-2.5 45 42.5 94q39 45 39 53q0 6 -34 13q-43 4 -44 33.5t39 50.5q41 23 54 53q12 33 47 33q31 0 65.5 21.5t34.5 41.5q0 17 39 80q20 27 31.5 38t24 15t32.5 4q47 0 68 -30q18 -33 67 -62q80 -47 17 -102q-29 -27 -74 -89.5t-45 -74.5q0 -16 67.5 -48 t74.5 -18.5t-13 35.5q-43 47 -2 82q18 14 22 58q2 20 6.5 28t12.5 11.5t26 3.5q16 0 22.5 -1t12.5 -9.5t7.5 -18.5t3.5 -39q2 -27 6 -44t13 -31.5t26 -30.5q39 -37 133 -239t88 -233q-4 -25 -37 -24q-23 0 -42.5 31.5t-78.5 165.5q-88 199 -96 198q-10 0 -10 -102v-105 l67 -57q59 -53 84 -95t8 -63q-20 -25 -41.5 -14.5t-66.5 63.5l-55 66l-56 -57q-78 -86 -208 -92.5t-208 71.5l-38 39l-27 -35q-41 -57 -74 -14q-16 16 10 78q29 63 41 69q14 8 15 54q0 29 -9.5 42t-37.5 31q-47 27 -49.5 72zM211 1114q0 -25 12 -24q12 0 25.5 24.5t5.5 34.5 q-14 14 -28.5 3t-14.5 -38zM215 905q10 -104 90 -147q31 -16 102.5 -11t92.5 23q12 14 12 22.5t-16 26.5q-18 18 -32.5 20.5t-64.5 -8.5q-100 -23 -96 21q2 8 8 20q18 27 108.5 56.5t110.5 15.5q14 -6 21.5 -7t12.5 8t6 26.5t1 50.5q0 86 -18 86q-6 0 -21 -8q-23 -15 -86 14 q-70 29 -69 29q-6 0 -33 -43t-27 -53q0 -8 -55 -46q-41 -25 -47 -38t0 -58zM238 1247q12 -2 30 0q33 4 51.5 20.5t57.5 69.5q61 85 61 99q0 51 -114 -47q-12 -10 -25 -23q-125 -115 -61 -119zM722 1336.5q-5 25.5 13 45.5q25 25 50.5 1.5t74.5 -115.5q10 -20 -1 -39t-34 -19 q-27 0 -65 56q-33 45 -38 70.5z" />
<glyph unicode="&#xdc;" horiz-adv-x="704" d="M20.5 784.5q-0.5 14.5 10.5 51.5q16 57 41 88q25 27 26.5 113.5t-22.5 105.5q-39 35 0 67q18 16 22 90q4 53 9.5 65.5t29.5 12.5q20 0 26.5 -9t10.5 -42q4 -43 13.5 -47t41.5 20q25 16 87.5 21.5t121.5 -4.5q25 -4 33 0t10 24q6 31 37 43q29 11 41 25q10 20 37 13t49 -33 q29 -37 25 -78t-35 -45q-14 -2 -27.5 -13.5t-23 -29t-14.5 -41t-5 -47.5q0 -25 4 -39.5t16.5 -30.5t39.5 -43q47 -45 58 -81t-19 -48q-18 -8 -52 22q-33 31 -41 11q-6 -18 -10 -105q-2 -55 -7 -71.5t-22 -18.5q-27 -8 -40 17q-12 14 -22.5 14t-43.5 -14q-66 -27 -146.5 -16 t-115.5 54q-16 23 -33.5 22t-24.5 -26q-8 -27 -30.5 -35t-42.5 11q-12 12 -12.5 26.5zM35 1444q-12 31 8 49t68 23q59 4 79 22q33 27 150 26t135 -20q12 -8 6 -47q-2 -33 -30.5 -43t-65.5 10q-31 16 -63 -6q-31 -20 -156 -28q-82 -6 -103.5 -4.5t-27.5 18.5zM177 1021 q1 -91 9 -95q10 -8 52 28q31 25 35.5 40.5t0.5 66.5q-4 49 -11 59t-34 10q-37 0 -43 -10q-10 -8 -9 -99zM266 846q-2 -10 6 -21q23 -27 87.5 -11.5t99.5 54.5q27 35 -31 37h-43q-25 -2 -45.5 -7t-35.5 -13t-25.5 -18.5t-12.5 -20.5zM379 1102q2 -12 27 -12q53 0 72.5 38.5 t-17.5 71.5q-23 23 -58 23q-18 0 -20 -3t8 -16q16 -20 0 -55q-14 -35 -12 -47z" />
<glyph unicode="&#xdf;" />
<glyph unicode="&#xe0;" horiz-adv-x="798" d="M31 740.5q-23 19.5 2 45.5q16 23 108 23q53 0 89 6t74 16.5t77 16.5q45 4 60.5 11t17.5 24q6 39 -12.5 49t-63.5 -8q-55 -20 -117 -21q-59 0 -104 -35q-37 -29 -60.5 -31.5t-42.5 19.5q-14 18 2.5 40t88.5 75q76 55 119.5 140t11.5 112q-20 18 -21 28q0 8 19.5 11.5 t42 -1t30.5 -14.5q16 -16 51 19q43 39 72 49q37 16 110.5 7t112.5 -34q27 -16 35 -29.5t6 -33.5q-4 -33 -27.5 -39t-49.5 18q-27 25 -89 29q-43 4 -61 -2t-51 -31q-31 -29 -36 -40t7 -30q18 -29 14 -36t-40 -2q-43 4 -50 -19q-2 -14 10.5 -19t59.5 -5q37 0 53.5 -3.5 t29.5 -12.5t38 -36q43 -49 51 -67q6 -18 33 0q18 10 33.5 5t56.5 -40q49 -39 57 -59.5t-14 -38.5q-16 -14 -64.5 5t-56.5 34q-23 35 -31 -29l-6 -115q-2 -115 -7 -137.5t-28 -24.5q-31 -6 -39 23q-6 27 -13 27t-42 -27q-59 -43 -146 -35t-120 60q-23 33 -31 88l-6 55h-65 q-55 0 -78 19.5zM262 676q-2 -29 33 -62q33 -35 79 -33.5t87 35.5q41 33 41 46q0 10 -82 16q-88 8 -113 16q-45 14 -45 -18zM395 769q0 -13 27 -13t27 13t-27 13t-27 -13z" />
<glyph unicode="&#xe1;" />
<glyph unicode="&#xe2;" horiz-adv-x="784" d="M20 645q-2 12 2.5 20.5t13.5 15.5t27 13q47 20 52.5 48t-31.5 55q-25 16 -31 30.5t-6 38.5q6 41 29 56q16 8 26.5 4t30.5 -29q20 -27 34.5 -31t57.5 2q45 6 53.5 14.5t8.5 47.5q0 61 -11.5 67.5t-78.5 -8.5q-29 -6 -37 -3t-8 22q0 27 21.5 40t76.5 21q37 6 56.5 17.5 t39.5 35.5l33 45l-27 25q-23 18 -31 15t-40 -42q-41 -49 -64 -49q-20 0 -22 8q0 10 47 88q31 49 46 63.5t40 14.5q39 0 57 -37q10 -16 19.5 -23t28 -9t67.5 -2q57 -2 80.5 -7.5t42.5 -23.5q37 -37 11 -66.5t-73 -5.5q-57 31 -76.5 -17t23.5 -110q25 -39 49.5 -47t136.5 -16 q49 -4 65.5 -25.5t-9.5 -50.5q-20 -23 -65.5 -27t-78.5 13q-27 14 -47 -1.5t-16 -43.5q4 -27 47 -37q51 -10 81.5 -34t26.5 -50q-2 -23 -26.5 -26t-85.5 11q-33 6 -39 1t-8 -44q-4 -43 -25.5 -55t-52.5 16q-14 14 -26.5 13.5t-49.5 -21.5q-47 -25 -109.5 -21.5t-105.5 31.5 q-37 25 -90 33q-33 4 -45 11.5t-15 25.5zM256 618q20 -10 51 -10q57 0 60 25l-9 14q-16 16 -50 20.5t-52 -8.5q-33 -20 0 -41zM326 795q0 -10 54 -40t62 -22q7 6 -22 39q-29 37 -74 37q-20 0 -20 -14zM365 874l43 5q45 4 49 24q6 27 -37 72q-23 23 -29 12q-8 -8 -18 -61z " />
<glyph unicode="&#xe4;" horiz-adv-x="661" d="M25 764q8 88 29.5 119.5t82.5 50.5q61 16 62 41q0 23 -19.5 24.5t-77.5 -10.5q-31 -6 -38 -3t-7 20.5t8.5 27.5t27 18.5t57.5 16.5q59 16 63 31q2 2 0 5t-7 8t-12.5 10t-16.5 9.5t-17 10.5q-39 14 -50.5 26.5t-11.5 34.5q0 35 23 41q27 8 88 41q57 31 127 45q59 8 89 1 t58 -38q31 -35 27 -82q-2 -23 -5 -32t-10.5 -13t-21.5 -4q-35 0 -39 29q-6 47 -37 53q-27 4 -30 -28q-2 -6 -2 -13q0 -33 -27 -47q-57 -31 -2 -49q25 -8 70 -10q96 -6 150 -38t48 -81q-4 -31 -30.5 -33t-61.5 29q-43 35 -70 35q-16 0 -19 -7.5t3 -29.5q12 -49 18 -125l9 -86 l57 4h30.5t23.5 -5t20.5 -12.5t23.5 -21.5q37 -41 36 -69.5t-40 -32.5q-37 -4 -51 22q-16 29 -57 25q-29 -2 -37 -11.5t-13 -46.5q-4 -33 -12 -44t-26 -13q-31 -6 -39 23q-6 27 -13.5 26.5t-42.5 -26.5q-66 -47 -154.5 -34t-121.5 75q-20 43 -12 143zM139 754q2 -29 39 -56 q39 -29 39 -59q0 -53 66 -10q25 18 27.5 36.5t-17.5 26.5q-19 9 -31 60q-8 41 -30.5 51t-63.5 -8q-31 -12 -29 -41z" />
<glyph unicode="&#xe7;" horiz-adv-x="854" d="M25 883q-27 68 96 135q74 41 88 75.5t-25 80.5q-25 27 -25.5 35t15.5 28q25 27 59.5 26.5t102.5 34.5q45 25 73.5 29t104.5 -2q113 -10 137 -20q20 -12 53 -73t46 -106q6 -25 -2.5 -41t-40.5 -49q-39 -39 -55.5 -45t-65.5 0q-63 8 -82 25.5t6 48.5q16 16 33.5 20.5 t56.5 -0.5q41 -4 52.5 -2t11.5 17q0 39 -26 49t-124 12h-125l2 -47q2 -51 27 -145q25 -84 44 -98.5t81 10.5q41 16 68.5 11t66.5 -32q23 -16 65 14q37 27 62.5 25t30 -32.5t-61.5 -75.5q-55 -41 -87 -46.5t-56 23.5q-37 41 -69 23.5t-23 -70.5q4 -27 -1.5 -40t-25.5 -26 q-35 -23 -92.5 -18.5t-61.5 29.5q-2 12 6.5 17t34.5 5q45 0 62 17q10 14 -25 45.5t-123 87.5q-39 25 -71 77q-25 41 -35 45.5t-39 -12.5q-39 -23 -62 -53q-18 -27 -44.5 -31t-36.5 19z" />
<glyph unicode="&#xe8;" horiz-adv-x="679" d="M20 796.5q0 28.5 39 39.5q23 4 30 18t13 66q10 78 31 116q14 27 14 39t-16 35q-20 33 -4 53q29 35 68 -2q25 -23 90 -12q74 10 67 27q-2 6 -18 12q-20 10 -53 63q-23 37 -36.5 45.5t-37.5 3.5q-39 -8 -62 17q-20 25 -14 45.5t39 26.5q70 12 120 -2.5t50 -49.5 q0 -16 35 -59q23 -29 39 -35t57 -4q61 4 74 -18q16 -23 -3.5 -43.5t-56.5 -20.5t-36 -8q0 -6 45 -47q49 -43 57 -84q12 -43 45 -45q37 -6 51.5 -24.5t14.5 -55.5q0 -23 -7.5 -35t-26 -26.5t-67.5 -47.5q-106 -68 -102 -82q2 -4 26 7q47 20 58.5 17t7.5 -32q0 -25 -11.5 -35 t-45.5 -20q-92 -27 -188.5 -9.5t-143.5 70.5q-29 29 -45 29q-20 0 -60 21q-37 18 -37 46.5zM197 854q-10 -27 8 -37t41 12q28 23 28 35q0 10 -17 11.5t-36.5 -5t-23.5 -16.5zM207 967q0 -8 2 -12.5t9 -7.5t19.5 -4t32.5 -1q63 0 82 12q29 18 0 33q-16 8 -43 6q-41 -2 -63 8 q-39 16 -39 -34zM274 728q-2 -7 19 -21q29 -20 48 -13.5t24 37.5q2 18 18 35.5t59 42.5q72 45 72 55t-65 10q-47 0 -60.5 -6t-30.5 -34q-16 -39 -55 -76q-27 -23 -29 -30z" />
<glyph unicode="&#xe9;" horiz-adv-x="530" d="M20.5 1065q-0.5 27 20.5 35q20 6 53 -8q31 -14 92 12q59 27 66 37q6 10 -41 106q-29 59 -35 82t4 35q20 27 46 19.5t40 -44.5q18 -47 33.5 -53t36.5 25q20 33 59 32.5t39 -8.5q0 -6 -47 -63q-45 -59 -45 -80q0 -23 78 -100q51 -49 66.5 -74t21.5 -66q8 -47 -2 -92 t-10 -65q0 -29 -7.5 -38t-29.5 -14q-37 -4 -51 -22t-47 -19.5t-62 15.5q-23 10 -57.5 5t-34.5 -20q0 -14 40 -27t79 -13q55 2 102 20q53 18 64.5 16t7.5 -32q-2 -23 -14.5 -33t-43.5 -21q-94 -27 -190 -9t-143 71q-29 27 -52 26q-25 0 -33 21.5t7 50.5q12 27 22 131 q4 61 2 86t-16 33q-18 16 -18.5 43zM147 836q-14 -23 17 -27q23 -4 96 -6q106 -2 109 12q-1 4 -13 12q-10 4 -104 15q-94 10 -105 -6zM196.5 1010q6.5 -21 53.5 -54q47 -35 108.5 -42t71.5 20q8 20 -9.5 48t-37.5 28q-24 -1 -49 26q-41 45 -109 11q-35 -16 -28.5 -37z" />
<glyph unicode="&#xea;" horiz-adv-x="864" d="M39 700q-49 41 29 144q80 104 63 180q-6 25 7.5 54.5t62.5 101.5q90 136 108 161q39 49 70 42t74 -78q49 -76 49 -86q0 -20 -41 -5q-23 10 -33 25q-18 27 -33.5 16.5t-11.5 -47.5q4 -20 14.5 -25t48.5 -5q61 0 86 -13q23 -12 58 25q23 25 39 30t59 -1q66 -6 82 12 q16 20 44 16t32 -28q4 -23 -17 -56q-12 -23 -29.5 -28t-70.5 -5q-76 0 -99.5 -22.5t-2.5 -73.5q18 -47 26 -127q6 -53 2 -73.5t-25.5 -28.5t-66.5 4q-45 6 -56 3t-22 -26q-25 -68 4 -67q4 0 11.5 2t27 7t27.5 7q16 6 21.5 1t5.5 -27q0 -37 -42 -51.5t-151 -16.5 q-70 0 -96.5 -5t-36.5 -20q-16 -25 -45 -18q-14 2 -19.5 14.5t-5.5 44.5q0 55 -28 95l-27 36l-22 -43q-20 -41 -36 -50t-34 5zM223 860q0 -20 13 -47q8 -16 16 -23.5t22.5 -10.5t44.5 -3q35 0 47.5 2t17.5 8.5t7 26.5q8 74 -18 70l-13 -9q-31 -25 -102 9q-33 12 -35 -23z M235 1011.5q-2 -14.5 25 -28.5q16 -10 30.5 -3t43.5 38q45 47 39 59q-10 18 -46 11t-61 -31q-29 -31 -31 -45.5z" />
<glyph unicode="&#xeb;" horiz-adv-x="595" d="M20 629q-6 20 21 84q27 59 35 161q10 217 131 250q86 23 157.5 12.5t104.5 -51.5q20 -20 59 -12q35 6 46.5 -15.5t-9.5 -53.5q-16 -25 -24 -82q-4 -35 -12.5 -44.5t-34.5 -13.5q-41 -4 -99 -59q-47 -45 -53 -63.5t16 -47.5q10 -16 22.5 -16t61.5 14q63 23 76 23 q8 0 8 -15.5t-6 -38t-16 -40.5q-14 -31 -27.5 -36t-60.5 1q-147 12 -238 63l-45 29l-27 -35q-20 -29 -47.5 -34t-38.5 20zM127 1300q2 6 13.5 17.5t31 24t39.5 24.5q74 39 105.5 41t62.5 -29q33 -35 67 -35q31 0 70 -37.5t35 -64.5q-4 -16 -19.5 -19t-72.5 -1q-41 2 -60.5 6 t-32 12t-28.5 27q-33 39 -42 39t-24 -41q-12 -41 -45 -41q-31 0 -67.5 28.5t-32.5 48.5zM178 943q0 -13 13.5 -13t13.5 13t-13.5 13t-13.5 -13zM209 737q0 -4 10 -16q18 -20 33 -8q6 4 0 16q-10 12 -31 12q-12 0 -12 -4zM262 1044l41 -4q51 0 86 -10q27 -8 29 0q4 12 -25 27 l-8 4q-27 12 -63.5 14t-59.5 -8q-39 -14 0 -23z" />
<glyph unicode="&#xee;" horiz-adv-x="772" d="M20 1133q0 49 46.5 101t95.5 58q41 4 71 56q33 49 52 49q33 0 -6 43q-20 25 -9 47t58 55q41 27 57 28t39 -22q25 -20 22.5 -39.5t-32.5 -93.5l-35 -84l29 -45q29 -49 28 -55q0 -20 -41 -2q-20 10 -28 20q-18 27 -30.5 26t-37.5 -32q-14 -18 -31.5 -25.5t-52.5 -7.5 q-70 0 -90 -34q-8 -16 6 -31q14 -14 51 -13t60 17q43 33 143 4q39 -8 67.5 -7t88.5 15l96 23l49 -41q45 -39 58.5 -60.5t7.5 -42.5q-10 -20 -42 -15t-61 32q-25 23 -36 25.5t-29 -7.5q-31 -14 -133 -16l-103 -2l-4 -56q-2 -35 4 -50t29 -33q35 -29 78 -29t75 -25 q33 -29 20 -52.5t-56 -16.5q-53 6 -93 6l-53 2l-6 -68q-6 -47 -12 -57t-29 -10t-29 13t-8 81q-4 117 -18 119q-8 2 -33 -17q-33 -29 -80 -37t-67 9q-25 20 -16 46.5t44 32.5q18 4 28.5 11.5t8.5 13.5q-6 18 19 45q23 27 69 19q29 -6 36 -3t3 17q-2 16 -21.5 22.5t-82.5 12.5 q-78 6 -106 22.5t-28 57.5z" />
<glyph unicode="&#xef;" horiz-adv-x="557" d="M33 1204q-35 20 12 72q55 57 107 47q51 -12 127.5 -1t119.5 36q41 25 59.5 23.5t53.5 -29.5q23 -18 26 -28.5t-8 -25.5q-16 -20 -53 -20t-82 -47q-72 -74 -121 -27q-14 12 -36.5 13.5t-87.5 -7.5q-102 -14 -117 -6zM37 928.5q0 7.5 16 27.5q25 27 53 19q31 -8 52.5 22.5 t21.5 79.5q0 46 8 58q6 6 127 0.5t144 -13.5q16 -6 15 -31.5t-19 -41.5q-20 -16 -82 -7q-61 8 -86 -14q-59 -53 28 -147q53 -57 54 -86q0 -25 -22.5 -35t-47.5 6q-27 16 -32 9t-9 -62q-2 -49 -8 -60.5t-29 -11.5q-14 0 -19 1t-10.5 11.5t-6.5 24.5t-1 47q-6 84 -12 84 q-8 0 -31 -16q-25 -16 -47 1t-18 50q4 27 -21 57q-18 20 -18 27.5z" />
<glyph unicode="&#xf3;" />
<glyph unicode="&#xf4;" horiz-adv-x="962" d="M20 944q-2 37 4.5 50.5t26.5 23.5q29 14 86 84q70 94 111 55q14 -14 63 6t74 20.5t35 12.5q8 12 -1 66.5t-20 54.5q-10 0 -39 -47q-31 -47 -55 -47q-12 0 -18 2t-6 10t6 19.5t20 33.5q20 35 13 43t-72 19q-51 6 -79.5 31.5t-10.5 48.5q14 18 118 14q117 -8 155 -17.5 t56 -33.5q20 -29 21 -66q0 -39 14 -65q14 -29 0 -60q-10 -20 -5 -31.5t32 -31.5q41 -35 80 -35q43 0 78 -29q35 -25 67.5 -22.5t38.5 30.5q4 27 25.5 50.5t44.5 23.5t45 -27q18 -20 16 -28t-26 -39q-35 -45 -35 -59q0 -29 -47.5 -36t-96.5 2t-73 19q-8 0 -13.5 2t-7.5 -9 t-3 -27.5t-1 -51.5q0 -63 4 -78.5t21 -15.5q31 0 70.5 -37t35.5 -63q-4 -25 -28.5 -31t-47.5 14q-63 59 -149 0q-27 -16 -45.5 -24.5t-41 -10.5t-61.5 -2q-94 -2 -118 -26q-16 -14 -25.5 -16.5t-22.5 8.5q-20 18 -20 53t-16.5 49t-63.5 25q-47 10 -64.5 25t-17.5 48 q0 35 -12 49q-14 14 -19 74zM281.5 820.5q-0.5 -15.5 25.5 -52.5q33 -47 98.5 -50t90.5 40q16 33 -0.5 42t-53.5 -12q-33 -20 -58.5 -14t-33.5 35q-6 27 -39 27q-29 0 -29.5 -15.5zM414 1022q-14 -27 12 -80q20 -37 31.5 -45t40.5 -6q43 4 47 29q2 14 -5.5 18t-35.5 2 q-27 -4 -36 1t-11 28q-6 31 26 55q18 14 21.5 24.5t-4.5 24.5q-14 23 -45 27q-10 2 -16.5 0t-9.5 -7.5t-3 -17.5q0 -25 -12 -53z" />
<glyph unicode="&#xf6;" horiz-adv-x="854" d="M20 1090q0 18 42 48.5t69 30.5q18 0 57 41l39 39l-30 56q-46 85 -21 110q14 8 44 3t59.5 -23.5t31.5 -34.5q6 -33 25.5 -46.5t38 -3t22.5 43.5q4 25 12.5 31t32.5 6q29 0 34 -7.5t5 -46.5q-2 -53 13 -63q16 -10 108 0q57 4 80 1t33 -15q25 -29 11.5 -49.5t-56.5 -24.5 q-55 -4 -64 -15q-6 -6 2 -33.5t21.5 -56t26.5 -57.5l12 -29q4 -23 61 -30q61 -10 85 -25.5t20 -40.5q-2 -23 -22.5 -26t-125.5 1q-106 2 -131 -1t-49 -29q-61 -57 -139 -63.5t-143.5 38.5t-88.5 127q-8 23 -14 40.5t-12.5 29.5t-13.5 19t-12 8t-11 -3q-8 -4 -20.5 2.5 t-22 19.5t-9.5 28zM215 969q-8 -14 8.5 -42t44.5 -46q27 -16 85.5 -15.5t64.5 17.5q4 16 -68 57q-115 66 -135 29zM223 1083q6 -4 19 0q18 8 120 -47q96 -55 113 -47q16 10 13 68.5t-19 72.5q-20 16 -72 0q-53 -14 -78 -14q-29 0 -47 29l-20 31l-23 -37q-31 -45 -6 -56z" />
<glyph unicode="&#xf9;" horiz-adv-x="849" d="M27 784q-18 29 11.5 51.5t92.5 30.5q76 6 88 17q14 8 13 58t-15 89q-10 31 -9 43t17 31q6 6 12.5 10t15.5 7t21.5 5t28.5 3t39 1q90 0 90 5q0 16 -31.5 67t-64.5 84q-39 45 -46 67t11 42q20 18 38.5 11t61.5 -52q51 -51 76 -104.5t8 -73.5q-14 -18 4 -25l56 -12 q37 -10 88 32q86 68 168 -8q41 -39 27.5 -84t-74.5 -69q-25 -10 -34 -19.5t-2 -15.5t32 -8q39 -4 50 -28t-12 -50q-18 -20 -17 -28.5t24 -31.5q31 -33 22 -53q-6 -18 -37.5 -20t-46.5 12q-10 10 -25.5 0t-28.5 -35.5t-17 -54.5q-4 -31 -12.5 -41t-26.5 -12q-31 -6 -39 22 q-6 25 -13 25q-6 0 -53 -31q-68 -45 -147.5 -27.5t-110.5 82.5q-8 20 -29 60q-6 14 -60 17t-105 -5q-23 -6 -39 16zM313 811q0 -10 82 -10q70 2 66 12q-31 31 -6.5 72t77.5 47q16 0 28.5 6t12.5 10q0 14 -49 16.5t-88 -12.5q-31 -10 -77 -63t-46 -78zM334 1034q-4 -6 8 -10 l16 -2q35 0 35 13.5t-26 13.5q-27 0 -33 -15zM354 712q-2 -3 17 -18q14 -10 35.5 -15t38 -3t16.5 10q0 29 -78 29q-27 0 -29 -3zM488 788q1 -8 42 -4q44 4 48 29q6 33 -9.5 37t-44.5 -21q-37 -33 -36 -41zM670 1073q8 -10 32.5 5.5t18.5 25.5q-10 12 -19 12q-12 0 -26 -18.5 t-6 -24.5z" />
<glyph unicode="&#xfa;" />
<glyph unicode="&#xfb;" horiz-adv-x="796" d="M24.5 1038.5q-12.5 22.5 7 44t60.5 21.5q45 0 60 26q14 27 43 23q14 -2 20 -8t9 -21.5t5 -50.5l4 -80l56 11q57 8 61 12q4 6 -41 45q-18 16 -27.5 28.5t-13.5 26.5t-4 37q0 33 -5 42t-28 9q-66 0 -66.5 41t60.5 115q60 69 117 102q104 55 133 -4q12 -27 0 -50.5 t-37 -23.5q-37 0 4 -69q20 -35 35 -36t53 34q33 27 62 27.5t129 -19.5q31 -6 43 -15.5t14 -25.5q4 -35 -30.5 -47t-88.5 4q-41 14 -61 5t-117 -89q-27 -20 -10 -23q14 -2 41 15q29 18 48.5 5t19.5 -54q0 -29 6 -40.5t26 -19.5q35 -14 35 -40.5t-35 -39.5q-23 -10 -27.5 -24 t-4.5 -68q0 -78 20 -116q29 -59 14.5 -139.5t-55.5 -80.5q-16 0 -31.5 27t-7.5 41q6 8 -5 47t-23 55q0 2 -3.5 1t-8.5 -4t-11 -7t-14.5 -9t-16.5 -11q-47 -31 -101 -33t-101 27q-45 27 -46 36q0 10 -18 35q-14 18 -21.5 19.5t-25.5 -17.5q-23 -20 -55.5 -17t-36.5 27 q-4 23 57 95l62 71l-21 50q-20 45 -55 51q-39 4 -51.5 26.5zM242 813q-10 -10 3 -37.5t38 -46.5q27 -23 59.5 -26.5t42.5 10.5q4 10 -66.5 59t-76.5 41zM299 903q0 -12 74 -61q45 -29 64.5 -35t35.5 2q18 8 22.5 24.5t0.5 57.5q-2 59 -15.5 69.5t-46.5 -18.5 q-33 -27 -84 -27t-51 -12zM314.5 1250.5q0.5 -7.5 19.5 -27.5q18 -18 28.5 -20.5t28.5 5.5q53 29 4 72q-25 23 -33 21.5t-30 -23.5q-18 -20 -17.5 -27.5z" />
<glyph unicode="&#xfc;" horiz-adv-x="839" d="M20 1350q4 18 17.5 22t71.5 2q55 -4 76.5 1t50.5 28q37 29 60 33t66 -13q35 -14 99 -24q37 -4 49 -12.5t14 -26.5q4 -27 11.5 -28t44.5 18q68 35 133 -23q47 -45 8 -78q-20 -16 -55 8q-35 23 -48 11q-14 -14 -8 -125l4 -113h93q57 0 77.5 -5t29.5 -19.5t5 -24.5t-24 -27 q-33 -29 -107 -22l-74 4l-4 -72q-4 -59 -20.5 -74.5t-54.5 5.5q-27 14 -66 2q-61 -23 -127 -10.5t-111 57.5q-23 23 -34 25.5t-29 -9.5q-25 -16 -49 -6q-25 8 -19 82t37 115q18 25 23.5 49t3.5 80l-4 90l-51 8q-45 8 -69 26.5t-20 45.5zM252 1243q0 -31 4 -41t16 -6 q23 6 111 8q51 2 72.5 6t33 14.5t19.5 37.5q4 20 2 25t-14 -1q-25 -8 -74 19q-27 10 -39 14t-18.5 2t-23.5 -7t-37.5 -8t-29 -5.5t-14.5 -10.5t-7 -16t-1 -31zM268 1040q23 -8 123 -10h135v35q0 23 -8 30t-41 13q-143 25 -188 -14q-49 -41 -21 -54zM272 924q0 -23 35 -44.5 t47 -9.5q15 14 11 39q-4 16 -27 25.5t-44.5 6.5t-21.5 -17zM451.5 920.5q-7.5 -21.5 5.5 -33.5q8 -6 19 -1t17.5 19.5t0.5 24.5q-8 12 -21 12q-14 0 -21.5 -21.5z" />
<glyph unicode="&#x2000;" horiz-adv-x="807" />
<glyph unicode="&#x2001;" horiz-adv-x="1615" />
<glyph unicode="&#x2002;" horiz-adv-x="807" />
<glyph unicode="&#x2003;" horiz-adv-x="1615" />
<glyph unicode="&#x2004;" horiz-adv-x="538" />
<glyph unicode="&#x2005;" horiz-adv-x="403" />
<glyph unicode="&#x2006;" horiz-adv-x="269" />
<glyph unicode="&#x2007;" horiz-adv-x="269" />
<glyph unicode="&#x2008;" horiz-adv-x="201" />
<glyph unicode="&#x2009;" horiz-adv-x="323" />
<glyph unicode="&#x200a;" horiz-adv-x="89" />
<glyph unicode="&#x2010;" horiz-adv-x="583" d="M25.5 926.5q17.5 23.5 74.5 23.5q111 4 193 60q51 35 94 51q45 14 99.5 13t68.5 -19q23 -27 1.5 -46.5t-75.5 -25.5q-35 -4 -50 -10t-24.5 -19.5t-19.5 -40.5q-6 -25 -49 -24q-45 0 -70 -21q-31 -23 -112.5 -20.5t-112.5 26.5q-35 29 -17.5 52.5z" />
<glyph unicode="&#x2011;" horiz-adv-x="583" d="M25.5 926.5q17.5 23.5 74.5 23.5q111 4 193 60q51 35 94 51q45 14 99.5 13t68.5 -19q23 -27 1.5 -46.5t-75.5 -25.5q-35 -4 -50 -10t-24.5 -19.5t-19.5 -40.5q-6 -25 -49 -24q-45 0 -70 -21q-31 -23 -112.5 -20.5t-112.5 26.5q-35 29 -17.5 52.5z" />
<glyph unicode="&#x2012;" horiz-adv-x="583" d="M25.5 926.5q17.5 23.5 74.5 23.5q111 4 193 60q51 35 94 51q45 14 99.5 13t68.5 -19q23 -27 1.5 -46.5t-75.5 -25.5q-35 -4 -50 -10t-24.5 -19.5t-19.5 -40.5q-6 -25 -49 -24q-45 0 -70 -21q-31 -23 -112.5 -20.5t-112.5 26.5q-35 29 -17.5 52.5z" />
<glyph unicode="&#x2013;" horiz-adv-x="1058" d="M30 926.5q33 23.5 139 23.5q208 4 361 60q96 35 176 51q85 14 187 13t128 -19q43 -27 2.5 -46.5t-141.5 -25.5q-65 -4 -93 -10t-46 -19.5t-37 -40.5q-11 -25 -91 -24q-85 0 -131 -21q-58 -23 -210.5 -20.5t-210.5 26.5q-66 29 -33 52.5z" />
<glyph unicode="&#x2014;" horiz-adv-x="2082" d="M40.5 926.5q65.5 23.5 279.5 23.5q415 4 722 60q191 35 352 51q168 14 372 13t257 -19q86 -27 5.5 -46.5t-282.5 -25.5q-131 -4 -187.5 -10t-92 -19.5t-72.5 -40.5q-23 -25 -184 -24q-168 0 -262 -21q-116 -23 -421 -20.5t-421 26.5q-131 29 -65.5 52.5z" />
<glyph unicode="&#x2019;" horiz-adv-x="317" d="M25 1110q-23 53 63 80q45 14 57 43q17 28 54 61q35 31 51 34t35 -13q16 -18 13 -39t-30 -57q-35 -43 -39 -115q0 -29 -2 -41t-6 -21.5t-10 -10.5t-18 -1q-14 0 -21.5 3t-10.5 11.5t-5 22.5q-4 27 -12.5 31t-51.5 -2q-37 -6 -50 -3t-17 17z" />
<glyph unicode="&#x201c;" horiz-adv-x="649" d="M25 1247q6 55 22 88q12 23 62 19q49 -4 47 -17q-16 -104 -15.5 -122.5t21 -18.5t40 13.5t34 36t20.5 50.5q8 39 16.5 46.5t46 7.5t46 -5.5t8.5 -33.5q0 -16 2 -28.5t4 -10.5q70 12 101.5 12t62.5 -12q43 -18 67.5 -46t20.5 -52q-4 -27 -30 -27t-59.5 24.5t-65.5 20.5 t-187 -53q-84 -25 -118 -41.5t-48 -36.5q-25 -35 -52.5 -37t-41.5 33q-14 33 0 67q18 35 0 54q-10 14 -4 69z" />
<glyph unicode="&#x201d;" horiz-adv-x="550" d="M20 1231l5 74q2 35 4 50t10 31.5t23.5 20.5t43.5 2q31 -4 39.5 -10t4.5 -25q-2 -31 30 -45q29 -14 50.5 -1t27.5 46q2 18 13.5 24.5t43.5 6.5h54v-74q0 -45 5 -61.5t23 -26.5q18 -8 86 -63q37 -31 45.5 -44.5t-0.5 -27.5q-16 -25 -47.5 -20.5t-64.5 34.5q-37 33 -131 74 q-59 25 -93 32t-88 5z" />
<glyph unicode="&#x2022;" horiz-adv-x="2086" d="M20 -142.5q0 13.5 1024 13.5t1024 -13.5t-1024 -13.5t-1024 13.5z" />
<glyph unicode="&#x202f;" horiz-adv-x="323" />
<glyph unicode="&#x205f;" horiz-adv-x="403" />
<glyph unicode="&#x20ac;" horiz-adv-x="1132" d="M20 979q2 10 13 25q16 18 131 18q78 0 100.5 6t46.5 33q20 20 26.5 39.5t4.5 56.5q-4 63 27 139q2 14 -35 21q-33 6 -49.5 27.5t-8.5 44.5t50.5 22.5t91.5 -22.5q51 -23 108 -23q72 -2 125.5 -48t73.5 -120q14 -59 -55 -63q-66 -4 -160 45q-39 20 -80 41q-6 2 -8 -13 q-10 -49 10 -98q2 -6 6 -10q14 -23 88 -27q51 -2 62.5 -8t11.5 -29q0 -16 -4 -22t-15.5 -9.5t-39.5 -5.5q-55 -4 -69.5 -15t1.5 -40q8 -14 19.5 -19t39 -7.5t95.5 -2.5q82 0 113.5 -4t41.5 -16q18 -23 4 -43q-8 -14 -27.5 -17.5t-68.5 -0.5q-82 4 -82 -9.5t58 -19.5 q37 -2 46 -8t9 -29v-33h-428v33q0 18 10 27.5t43 17.5q96 29 41 90q-10 8 -27.5 14.5t-52.5 10.5t-100 8q-184 12 -187 43zM526 1278q0 -18 45 -35q35 -12 35 4q0 9 -12 23q-8 12 -24.5 17t-30 2t-13.5 -11zM942 954q33 66 123 -24q55 -53 49 -84q-4 -33 -33.5 -35t-50.5 29 q-20 35 -39 34q-18 0 -41 27q-24 24 -8 53z" />
<glyph unicode="&#x25fc;" horiz-adv-x="1310" d="M0 0v1311h1311v-1311h-1311z" />
</font>
</defs>
</svg>
