<?xml version="1.0" standalone="no"?>
<!DOCTYPE svg PUBLIC "-//W3C//DTD SVG 1.1//EN" "http://www.w3.org/Graphics/SVG/1.1/DTD/svg11.dtd" >
<svg xmlns="http://www.w3.org/2000/svg">
<metadata></metadata>
<defs>
<font id="zxx_camo_intmedium" horiz-adv-x="2086" >
<font-face units-per-em="2048" ascent="1638" descent="-410" />
<missing-glyph horiz-adv-x="860" />
<glyph horiz-adv-x="0" />
<glyph unicode="&#xd;" horiz-adv-x="681" />
<glyph unicode=" "  horiz-adv-x="860" />
<glyph unicode="&#x09;" horiz-adv-x="860" />
<glyph unicode="&#xa0;" horiz-adv-x="860" />
<glyph unicode="!" horiz-adv-x="792" d="M20 819q0 25 26 47.5t54 22.5q35 0 70 45q37 47 74 51q80 8 -41 57q-135 53 -88 138q20 35 43 49q16 8 27.5 3t35.5 -34q39 -43 53 -37q14 10 15 82q0 70 8 80q10 10 45 4q16 -2 22.5 -8t10.5 -20.5t6 -55.5q6 -59 12 -70.5t39 -13.5q14 -2 22.5 -2t12.5 3t6 7t2 13 q0 47 37 53t76 -35q37 -39 33.5 -70.5t-41.5 -35.5q-25 -2 -31 -9.5t-4 -23.5q4 -20 19.5 -26.5t74.5 -10.5q80 -6 106.5 -25.5t28.5 -72.5q2 -57 -27.5 -76t-130.5 -23q-115 -6 -114 -16q2 -2 30 -25q111 -86 80 -110q-10 -8 -32 -10q-39 -4 -66 -31q-25 -25 -51 -25 q-27 0 -41 -28q-10 -16 -25.5 -21.5t-58.5 -1.5l-70 4l-4 70q-2 29 -1 45t6 23.5t16 11.5q16 6 42.5 32.5t26.5 38.5q0 10 -49 17q-29 6 -46 1t-42 -26q-27 -23 -44 -28t-50 2q-45 8 -74 27.5t-29 43.5zM374 798q1 -5 17 -14q20 -10 39 -1.5t19 28.5q0 4 -4.5 7t-11.5 3 t-16 -1t-17.5 -3t-16.5 -8q-10 -6 -9 -11zM381 991q0 -16 14.5 -27.5t20.5 -2.5q4 0 3 9t-5 17q-12 31 -27 21q-6 -6 -6 -17z" />
<glyph unicode="&#x22;" horiz-adv-x="772" d="M20.5 1146.5q-0.5 10.5 14.5 43.5q23 45 55 67q33 20 49 97q17 80 23 88q8 12 67 6q53 -2 59.5 -17.5t-7.5 -95.5q-6 -41 -1 -52t46 -34q57 -29 59 -22q4 2 21 102q14 96 22 111q8 10 141 10q82 0 114 -4t48 -19q39 -35 14.5 -72.5t-88.5 -37.5q-51 0 -55 -17 q-2 -8 -22 -94q-12 -78 -41 -104q-57 -59 -226 14q-84 37 -111.5 38t-66.5 -32q-35 -29 -53.5 -30.5t-42.5 24.5q-18 20 -18.5 30.5zM48.5 923.5q1.5 14.5 17.5 32.5q25 27 43 27q20 0 44.5 -22.5t24.5 -38.5t23 -33q12 -10 32.5 -10t75.5 10q61 12 77.5 10t37.5 -20 q16 -18 19 -29.5t-7 -32.5q-29 -66 -213 -67q-74 0 -107.5 24.5t-56.5 93.5q-12 41 -10.5 55.5z" />
<glyph unicode="#" horiz-adv-x="784" d="M22.5 1262q-4.5 12 4.5 24q39 61 100 27q66 -37 66 16q0 31 17 40t37.5 -5t24.5 -41q4 -29 16.5 -34t78.5 -3q63 2 75.5 7t16.5 34q4 20 13 28.5t28 8.5q23 0 27.5 -10.5t4.5 -61.5q0 -47 7.5 -61t31.5 -27q43 -23 91 -28q49 -8 70.5 -33t27.5 -82q8 -45 2 -58.5 t-41 -39.5q-45 -35 -137 -68q-90 -31 -95 -43q-4 -14 56 -66q49 -41 58 -69.5t-19 -57.5q-23 -27 -47.5 -22.5t-57.5 37.5q-37 41 -61 41q-25 0 -25 14q0 18 -59.5 81.5t-77.5 63.5q-23 0 -33 -19t-18 -73q-4 -41 -11.5 -51t-33.5 -14l-39 -4l6 75q4 51 1 65.5t-24 20.5 q-29 12 -23.5 41t38.5 41q18 6 25.5 22.5t13.5 59.5q6 53 -1 70.5t-38 24.5q-27 4 -32 30.5t-40 63.5q-20 23 -24.5 35zM258 1121q0 -9 36 -49t71.5 -75.5t40.5 -31.5q10 14 18 67q7 58 -16 76q-10 10 -47 17.5t-70 6t-33 -10.5zM500 1010q0 -37 8 -45q4 -2 27.5 15t39 40 t3.5 31q-16 10 -38 11t-30 -9q-10 -6 -10 -43z" />
<glyph unicode="$" horiz-adv-x="935" d="M20 1092q0 20 32 44.5t48 14.5q4 -4 16.5 8t22.5 35q25 47 67 85t79 46q35 8 48 13t17 12.5t4 23.5q0 33 11.5 42t44.5 5t36 -41q4 -39 27 -45q84 -29 164 -69q14 -8 28.5 -79t6.5 -93q-10 -25 -45 -18t-43 34q-12 29 -26.5 31t-61.5 -17q-29 -12 -38 -23t-9 -38t12 -39 t59 -33q51 -23 97.5 -65.5t46.5 -69.5q0 -14 41 -55q119 -113 55 -183q-47 -53 -98 15l-29 41l-37 -27q-31 -25 -88 -47q-31 -8 -43 -20.5t-16.5 -35t-13.5 -29.5t-34 -7q-16 0 -25 3t-13.5 11t-8.5 25q-4 23 -16 35t-47 22q-39 14 -73 39t-56.5 55.5t-26.5 61.5 q-10 51 -1 70.5t42 15.5q16 -2 24.5 -6t13.5 -14.5t7 -30.5q8 -47 53 -76q45 -31 59.5 -27t18.5 68q4 45 -6 60.5t-69.5 58.5t-137.5 90q-53 31 -86 64.5t-33 58.5zM248 1149q8 2 18 4q35 6 61.5 26t26.5 40q0 31 -47 10q-23 -8 -45 -27q-70 -57 -14 -53zM450 726 q1 -24 13 -32t39.5 7.5t23.5 29.5t-32.5 25.5t-36.5 3.5q-8 -10 -7 -34zM725 1038q27 29 53.5 21t77.5 -64q61 -66 62 -100q0 -20 -9.5 -40.5t-25 -33t-29.5 -12.5q-8 0 -18.5 4t-19.5 11t-16 15.5t-11.5 18.5t-4.5 16q0 23 -41 52q-71 53 -18 112z" />
<glyph unicode="%" horiz-adv-x="698" d="M20 1200q0 47 9.5 64.5t50.5 54.5q45 41 73.5 48t65.5 -11q20 -10 45 -30.5t41.5 -40t16.5 -30.5q0 -14 32 -55q25 -27 32 -29t28 17q27 25 22.5 40t-43.5 36q-73 41 -22 96q25 27 77 21.5t74 -38.5q18 -29 84 -92q104 -109 58 -161q-51 -55 -109 20q-31 41 -48.5 43 t-43.5 -31q-18 -27 -16 -36t26 -33q37 -43 68 -97q23 -41 27.5 -68.5t2.5 -88.5q-2 -72 -9 -92.5t-44 -53.5q-29 -27 -49 -36t-53 -9t-59.5 14.5t-88.5 67.5l-94 82l-33 -29q-14 -14 -38.5 -22t-43 -6t-18.5 14q0 16 59 86q53 59 51.5 91t-57.5 75q-27 18 -34 31.5t-3 36.5 q6 35 -14 59q-23 25 -23 92zM98 1185q6 -26 25.5 -42.5t42.5 -23.5t43 11q12 12 7 24.5t-40 45.5q-35 35 -46 40t-24 -9q-14 -20 -8 -46zM242 1016q10 -6 38.5 13.5t28.5 35.5q0 29 -43 0q-39 -33 -24 -49zM301 904q8 -13 47 7q33 16 37 22.5t-4 28t-19.5 19.5t-37.5 -31 q-31 -33 -23 -46zM348 809q0 -12 58.5 -46t72.5 -30q18 8 14.5 34.5t-28.5 51.5q-33 29 -51 29t-42 -14.5t-24 -24.5z" />
<glyph unicode="&#x26;" d="M20 -142.5q0 13.5 1024 13.5t1024 -13.5t-1024 -13.5t-1024 13.5zM569 1405q1 72 146 86q135 14 176 3t70 -71q12 -23 34.5 -28.5t120.5 -12.5q47 -2 72.5 -4t45 -6t30 -10t22.5 -19q27 -27 31 -57.5t-19 -48.5q-20 -16 -75 -2q-59 14 -168 16q-74 4 -97.5 0t-42.5 -24 l-28 -27l59 -82q59 -82 67.5 -82t14.5 78q0 29 2 42t6 22.5t10.5 10.5t18.5 1q20 0 27.5 -7t9.5 -30q4 -33 20 -37q6 6 8 17q0 8 7.5 19t17.5 21.5t22.5 16.5t20.5 6q23 0 45 -25q16 -16 17.5 -30.5t-9.5 -46.5q-16 -53 -43 -97q-18 -35 -18 -44t22 -31q66 -70 -22 -134 q-61 -41 -104.5 -31.5t-51.5 64.5q-4 31 -17 35t-26 -22q-37 -78 -90 -29q-33 27 -82 35q-53 8 -100 39.5t-70 76.5q-23 43 -25.5 100.5t15.5 90.5q14 31 16 100q4 72 -18 80q-14 4 -26.5 13.5t-21.5 19.5t-14.5 21.5t-5.5 23.5zM823 1114q0 -25 35 -81t60 -70q35 -23 8 28 l-35 60q-57 88 -64 88q-4 2 -4 -25zM825 1300q8 -25 29 -20q10 4 10 16q0 20 -22 21q-20 0 -17 -17z" />
<glyph unicode="(" horiz-adv-x="802" d="M27.5 702.5q19.5 28.5 76.5 32.5l46 2l6 213q6 211 22 248q18 43 60.5 86.5t85.5 61.5q49 25 100 22q31 -2 38 -9t7 -36q0 -39 -27 -43q-49 -8 -72.5 -17.5t-52.5 -33.5q-51 -43 -41 -60q4 -8 39 15q37 29 117 30q35 0 55.5 -2t39 -9t42.5 -23q39 -27 51.5 -29t34.5 12 q25 18 61 19.5t52 -15.5q41 -41 -39 -110q-53 -45 -96 -47t-101 41q-53 41 -98 36q-18 -2 -25.5 -4t-13.5 -10t-8 -18.5t-6 -38.5q-10 -86 -33.5 -183.5t-48.5 -146.5q-20 -47 -20 -59.5t18 -32.5q45 -51 127 -66q31 -6 38 -14t7 -33.5t-7 -33t-36 -11.5q-31 -4 -69 9.5 t-73.5 38t-62.5 55.5q-16 20 -30.5 32.5t-30 19.5t-37.5 9q-59 10 -87 42t-8.5 60.5z" />
<glyph unicode=")" horiz-adv-x="800" d="M21.5 1223.5q-5.5 33.5 23.5 60.5q18 14 29.5 16.5t31.5 -8.5q33 -14 33 -26q0 -16 56.5 -80t87.5 -84q33 -23 92 -26t65 18q4 14 19 100q10 55 10 75.5t-14 43.5q-39 55 -127 71q-74 11 -49 74q14 41 106 8.5t143 -96.5q41 -53 72 -53q53 0 116.5 -75t65.5 -140 q0 -33 -34.5 -81t-88.5 -87q-57 -39 -61 -66q-4 -25 64 -94q55 -53 64 -88t-19 -68q-49 -53 -101 17q-29 37 -45 37t-45 -37q-27 -37 -88 -66.5t-104 -25.5q-20 2 -28.5 6t-11.5 12t-3 25q0 27 10 36t53 19q53 14 79 32.5t46 59.5q12 23 13 38t-7 38q-18 39 -10 86l8 47h-80 q-90 0 -166.5 45t-154.5 148q-45 55 -50.5 88.5zM594 1116q0 -43 12 -49t35 27q14 22 0 45q-23 33 -35 26.5t-12 -49.5z" />
<glyph unicode="*" horiz-adv-x="706" d="M21.5 1241q9.5 49 60.5 49q14 0 26.5 -6t18.5 -11t17.5 -3t27.5 18q31 29 46 27t50 -37q41 -41 49 -41q11 0 11 57v6q0 14 1 21.5t2 18t3 13.5t5 10t9 5t14.5 1t20.5 -1q20 -4 26.5 -14.5t10.5 -53.5q4 -63 12 -63t55 43l45 43l43 -51q33 -39 51.5 -105.5t4.5 -91.5 q-8 -12 -70 -12q-59 0 -59 -10t41 -49t35 -70q-4 -18 4 -28.5t36 -26.5q51 -23 64.5 -60t-14.5 -67l-29 -27l-59 29q-61 29 -72.5 28.5t-38.5 24.5q-23 27 -78 31q-35 2 -46 9t-13 25q-6 31 -21 31q-10 -2 -10 -20q0 -27 -31.5 -57.5t-60.5 -30.5q-45 0 -62.5 31.5 t11.5 60.5q14 14 26 143q2 8 -1 14.5t-11 11.5t-25 7q-39 6 -47 37q-6 29 -43 57q-45 35 -35.5 84z" />
<glyph unicode="+" horiz-adv-x="552" d="M21 975q2 43 25.5 79t51.5 36q25 0 46.5 -27t19.5 -55q-4 -20 3 -27.5t30 -7.5q31 -4 33.5 4t-21.5 35q-54 59 18 149q37 47 71 48t42 -46q4 -27 15.5 -35t56.5 -14q59 -8 84 -24q18 -16 17 -40t-19 -40q-41 -35 10 -43q6 0 9 -1t7 -3t6 -5.5t3 -6.5t2 -7t2.5 -9t1.5 -13 q0 -29 -12.5 -35t-80.5 -13q-94 -6 -98 -20q-6 -14 43 -72q117 -141 -63 -131q-25 0 -35 2t-20.5 3t-12.5 8.5t-4 13.5t-4 22q-2 23 -13.5 46.5t-30 43t-43 35t-50.5 23.5q-53 16 -74 49q-18 35 -16 78z" />
<glyph unicode="," horiz-adv-x="477" d="M20 864q0 27 20.5 50.5t43 27.5t35.5 -12q8 -12 43 -17q33 -8 53 25q14 20 25.5 25.5t38.5 -0.5q51 -8 102 -11q68 -4 77 -29.5t-34 -101.5q-31 -53 -34 -70.5t16 -45.5q23 -41 8 -74q-12 -27 -63.5 -39t-162.5 -14q-49 -2 -58 2t-9 34q0 27 8 34t43 11q49 4 49 17 q0 20 -47 69.5t-68 49.5q-29 0 -57.5 22.5t-28.5 46.5z" />
<glyph unicode="-" horiz-adv-x="339" d="M47 922q-65 61 29 180q43 53 62.5 62.5t49.5 -11.5q25 -18 17 -74l-6 -55l61 -4q45 -2 53.5 -8t8.5 -37q0 -27 -7.5 -34t-40.5 -9q-96 -10 -34 -43l12 -6q49 -16 57 -52q16 -61 -8.5 -93.5t-67.5 -10.5q-63 33 -88.5 48.5t-45 31.5t-22.5 26.5t-3 28.5q0 35 -27 60z" />
<glyph unicode="." horiz-adv-x="428" d="M20 979q0 24 23 47q35 37 111.5 16.5t154.5 -90.5q37 -31 69 -83t32 -83q0 -23 -24 -47t-46 -24q-25 0 -29 -49q-2 -35 -10 -44.5t-43 -15.5q-51 -6 -68 -24q-16 -16 -38.5 -13.5t-40.5 23.5q-18 20 -35 115q-12 61 -10 80.5t16 35.5q23 25 43 24t49 -32q37 -43 78 -33 q25 6 14 35q-10 23 -70.5 60.5t-89.5 37.5q-20 0 -40.5 9.5t-33 25t-12.5 29.5z" />
<glyph unicode="/" horiz-adv-x="800" d="M21 773q-5 23 20 52q25 27 52.5 22t72.5 -46t52 -75t-25 -52q-49 -25 -130 43q-37 33 -42 56zM180 936q0 41 32 58.5t91 11.5q82 -12 98 -19q20 -4 25.5 9.5t9.5 84.5q2 47 9.5 80t19.5 54.5t31.5 31.5t46.5 15q44 2 67 43q23 39 63 38.5t48 -12.5q8 -14 -66 -151 q-55 -102 -63 -127t4 -68q12 -45 30.5 -61.5t73.5 -26.5q45 -8 63.5 -24.5t18.5 -51.5q0 -72 -75 -63q-39 4 -43.5 -21.5t30.5 -62.5q66 -68 -6 -103q-61 -29 -110.5 6t-49.5 105q0 41 -43 72q-39 31 -49 22q-6 -6 -55 -98q-35 -63 -49.5 -77.5t-48.5 -16.5q-49 -4 -49.5 12 t59.5 127q59 109 58 130t-68 21q-29 0 -48.5 4.5t-32 11.5t-17.5 18.5t-5 27.5z" />
<glyph unicode="0" horiz-adv-x="880" d="M20.5 1012q2.5 45 36.5 82q25 27 31 47t4 84q-2 57 2.5 79.5t20.5 38.5q23 25 35 26t40 -19q29 -18 179 -23q150 -2 155 6q6 12 39 11t39 -13q8 -14 68 -14q57 0 98 -35q53 -43 40 -86t-79 -37q-29 2 -38 -4t-17 -33q-10 -41 -31 -59q-20 -16 -20 -123q0 -66 4 -87.5 t20 -25.5q66 -23 130.5 -53.5t72.5 -46.5q16 -29 12 -63.5t-26 -57.5q-23 -23 -57 -22.5t-175 22.5q-80 14 -117 -6q-35 -18 -139 -18t-135 16q-35 23 -84 64l-57 47l6 90q6 61 2 81.5t-27 47.5q-35 39 -32.5 84zM174 995q-12 -12 19 -43q29 -33 34 -65q10 -39 29.5 -36 t40.5 48q6 12 12 25.5t10.5 22.5t6.5 12.5t-1 5.5t-8.5 3t-11.5 1q-27 0 -74 20q-45 18 -57 6zM330 690q-4 -18 43 -12q41 4 39 16t-13.5 14.5t-40.5 -3.5q-29 -4 -28 -15zM408 1212q0 -20 14 -35.5t14 -33.5q0 -27 25 -27q31 0 34 16.5t-18 53.5q-29 55 -55 49 q-14 -3 -14 -23zM478 906.5q5 -50.5 24 -50.5q20 0 24 57q6 78 -18 76q-8 0 -19 -12q-16 -20 -11 -70.5z" />
<glyph unicode="1" horiz-adv-x="737" d="M20 776q0 31 40 64.5t77 33.5q31 0 37 8.5t6 43.5q0 53 23 82q20 29 16 32l-67 35q-37 16 -50.5 29.5t-13.5 32.5q0 33 12 41q14 6 15 55q-1 51 22 74q23 27 46.5 21.5t66.5 -44.5q33 -31 50 -37t44 -2q41 10 59 -14q16 -25 62 -45q45 -25 49 -64q0 -12 -1 -21t-7 -19.5 t-15.5 -20.5t-27.5 -27q-63 -68 -17 -78q25 0 50 -26q27 -31 14.5 -66t-49.5 -39q-23 -4 -31 -14t-14 -41q-8 -55 -6 -115.5t12 -66.5q12 -8 80 26q49 25 58 36.5t3 39.5q-16 78 62 78q29 0 52 -27.5t33.5 -64.5t5.5 -74t-30 -53q-27 -20 -49 -21q-18 0 -76.5 -28.5 t-103.5 -57.5q-29 -20 -40 -20t-52 24q-53 31 -189 39l-135 9v41q0 25 6 32.5t31 10.5q33 4 34 12t-28 31q-25 18 -44.5 67t-19.5 88z" />
<glyph unicode="2" horiz-adv-x="919" d="M20 727q-6 61 40 86t85 -18q31 -33 54 -27q6 4 6 10q0 12 -12 25q-14 14 -19.5 145t6.5 189q14 70 27.5 90t56.5 41q49 24 49 55q0 35 22.5 50.5t51.5 6t43 -38.5q20 -39 53 -45q41 -12 86 -34q49 -25 76 -25q39 0 54.5 -38t17.5 -142l4 -135h-39q-39 -2 -64 -37 q-27 -37 -46 -37t-19 -8q0 -14 29.5 -28.5t60.5 -16.5q43 0 57 -19q14 -18 50 -26.5t49 4.5q33 33 80 -9q45 -41 -2 -98q-10 -14 -21.5 -20t-28 -9.5t-47.5 -3.5h-71l-9 -53q-4 -35 -11 -45t-30 -12q-31 -4 -51 16q-10 12 -54 16.5t-171 4.5q-137 0 -172 4t-41 18 q-16 57 -45 72q-72 31 -86 45t-19 47zM414 1075q-18 -29 35 -35q25 -4 59 -2q80 5 80 25q0 18 -82 24.5t-92 -12.5zM420 728q0 -13 26.5 -13t26.5 13t-26.5 13t-26.5 -13zM506 700q-4 -4 2 -14q31 -55 49 -43q13 6 -12 33q-29 33 -39 24z" />
<glyph unicode="3" horiz-adv-x="772" d="M20.5 1120.5q4.5 28.5 42.5 32.5q25 4 31 13.5t6 45.5q1 53 15 80t49 23t47 -33q6 -12 17.5 -17t35 -8.5t82.5 -3.5q39 0 82 -2t63.5 -3t50 2t64.5 14q39 12 52.5 10t31.5 -21q27 -25 18.5 -54.5t-44.5 -47.5q-23 -12 -29 -27.5t-6 -66.5q-4 -76 -19 -90q-14 -16 19 -56 q35 -41 30 -71q-2 -18 6.5 -29.5t36.5 -26.5q45 -23 50 -47q6 -29 -20.5 -52t-63.5 -23q-25 0 -40.5 -6.5t-17.5 -16.5t11 -23q16 -16 14 -44.5t-21 -43.5q-20 -18 -67 -4q-49 14 -82 2t-97.5 -11t-109.5 13q-72 18 -122 77t-50 120q0 39 -20 57q-18 14 -19.5 44t14.5 46 q47 47 150 -36q43 -37 79 -55.5t44 -10.5q4 4 -8 35q-10 31 -43 31q-31 0 -47 16t-15.5 52t19.5 52q20 16 20 48q0 29 -21.5 31.5t-50.5 -19.5q-31 -23 -61.5 -20t-36.5 26q-8 27 -41 47q-33 23 -28.5 51.5zM227 647q8 -12 27 -12q8 0 12 4t0 8q-6 14 -28 15q-18 0 -11 -15z M313 1157q0 -8 14.5 -21.5t34 -22.5t31.5 -9q27 0 40 16.5t-1 32.5q-8 8 -36.5 13t-55.5 3t-27 -12zM502 991q0 -14 14 2q16 14 10 23q-10 8 -20 -6q-4 -8 -4 -19z" />
<glyph unicode="4" horiz-adv-x="831" d="M20 709q0 29 37 70.5t60 41.5q18 0 30 43q14 43 41 58q6 2 14.5 6t11.5 5t5 5t0 8t-8 12q-14 20 -20.5 101.5t6.5 93.5q16 16 53 17t45 -13t20.5 -13t12.5 15q0 18 24.5 41t44.5 23q23 0 52 -15q29 -20 44 -3.5t-8 42.5q-39 43 -17.5 78t91.5 47q145 23 184 -14 q25 -25 26 -43.5t-19 -48.5q-14 -20 -26.5 -24.5t-39.5 1.5q-37 6 -57.5 -10t-14.5 -45q4 -25 33 -21q61 8 79.5 -37t-30.5 -77q-37 -20 -43 -27q-6 -2 8 -18q14 -20 21 -52q2 -20 11 -28t32 -10q53 -6 78.5 -46.5t-2.5 -70.5q-12 -12 -23 -68q-8 -53 12 -71 q23 -18 22 -56.5t-24 -66.5q-25 -29 -77 -27h-55.5h-61.5q-41 2 -54.5 8t-21.5 27q-12 35 -25.5 35t-56.5 43q-16 14 -26.5 22t-26.5 13.5t-34.5 6.5t-53.5 3q-98 2 -98 -6q0 -10 20 -37q23 -29 18.5 -58.5t-32.5 -48.5q-33 -23 -51 -16q-23 10 -76.5 94t-53.5 111z M312.5 846q6.5 -8 37.5 12t52.5 11t48.5 -54q39 -66 57 -31q4 6 6 17q8 43 -80 90q-51 25 -70.5 23.5t-39.5 -31.5q-18 -29 -11.5 -37zM610 729q0 -55 17 -55q10 0 12 35q0 8 1 19t1 17.5v13.5t-4 12t-10 7q-8 2 -12.5 -9t-4.5 -40z" />
<glyph unicode="5" horiz-adv-x="1079" d="M20 924q0 16 32 83.5t49.5 89t41 19.5t45.5 -29q16 -18 17.5 -29t-8.5 -40q-20 -51 -25 -82q-8 -41 -23.5 -57.5t-44.5 -16.5q-18 0 -37.5 9.5t-33 23.5t-13.5 29zM196 838q-1 39 33 102q27 45 30 77t-1 148q-6 164 8 178q31 31 101 -22q35 -27 68.5 -33t174.5 -10 l193 -8v-39q0 -29 -7.5 -36t-37.5 -11q-49 -8 -51 -23q-2 -18 49 -18q33 0 48 -6.5t27 -26.5q23 -35 50 -35t52 -21.5t25 -41.5q0 -23 -24.5 -46.5t-44.5 -23.5q-39 0 -8 -35l30 -33q47 -45 47 -65q0 -25 -26.5 -46.5t-57.5 -21.5q-20 0 -28 -6t-8 -20q0 -53 102 -53 q74 0 106.5 -34t-4.5 -75q-27 -31 -106.5 -28t-136.5 36l-58 33l-69 -31q-82 -41 -139.5 -44t-114.5 28q-35 20 -68 49t-54.5 57.5t-21.5 44.5q0 25 -38 64q-39 37 -40 76zM359.5 1095.5q5.5 -14.5 16.5 -16.5t21 8q16 16 -6 39q-14 14 -19 14.5t-12 -16.5 q-6 -14 -0.5 -28.5zM528 1169q0 -12 34 -28.5t42 -5.5q8 5 2 28q-4 6 -12 11.5t-19.5 7.5t-21.5 2t-17.5 -4t-7.5 -11zM553 737q8 -8 18 -8q13 0 13 13.5t-23 13.5q-25 0 -8 -19zM629 926q-6 -18 27.5 -81t48.5 -63q14 0 8 23q-5 14 -21 63q-29 80 -51 72q-8 -4 -12 -14z " />
<glyph unicode="6" horiz-adv-x="921" d="M20 745q0 27 23 51.5t45 24.5q23 0 51.5 56.5t28.5 97.5q0 55 -19.5 106.5t-48.5 73.5q-39 29 -39 72q0 61 31 73.5t78 -30.5l37 -35l39 27q37 26 86 49q72 33 156.5 15.5t152.5 -77.5q37 -33 59.5 -43t57.5 -10q25 0 40 -3t29.5 -12.5t32.5 -27.5q70 -66 21 -119 q-43 -51 -90 2q-25 27 -42.5 25t-37.5 -31q-23 -35 -9 -86q12 -53 23 -162q8 -115 29 -137q18 -23 10 -43t-39 -20q-27 0 -44 15t-17 40q0 23 -11 22q-8 -2 -57 -32q-53 -37 -121 -43q-66 -4 -82 -25q-23 -29 -57.5 -12.5t-50.5 65.5q-10 23 -43 23t-84 20q-47 18 -68 19 q-23 0 -46.5 24.5t-23.5 46.5zM274 829q0 -23 3.5 -34t12.5 -18t29 -15q43 -18 74 -53q31 -31 50.5 -32t33.5 28q10 18 5 29t-31 34q-41 33 -41 53q0 16 -35 8q-37 -8 -68 21l-33 29v-50zM381 1024q0 -10 20 -29q12 -8 25.5 -7t17.5 11.5t0 22.5q-6 8 -21 12t-28.5 1 t-13.5 -11zM537 887q6 -4 24 -10q49 -18 60 4q3 8 -3 20q-16 25 -69 2q-23 -10 -12 -16z" />
<glyph unicode="7" horiz-adv-x="1019" d="M20 942q2 51 29 96t55 49q31 4 57.5 -20.5t20.5 -52.5q-8 -45 31 -23q27 14 72 60q53 51 80.5 59t78.5 -14q16 -6 19.5 -2t1.5 24t-13.5 26.5t-41.5 8.5q-49 4 -80 47q-31 41 -60 51q-35 12 -29.5 49t40.5 41q36 4 61 31q23 25 34 24t44 -26q27 -23 84 -23.5t207 19.5 q43 4 57 -1t35 -34q18 -27 22 -51.5t2 -89.5q-4 -100 9 -113q16 -12 61 -26q70 -23 95.5 -74t-19.5 -80q-8 -8 -31.5 -3t-64.5 21.5t-111 51.5q-31 14 -41 14t-29 -18q-59 -53 21 -129q23 -20 31 -33t11 -28t-1 -34q-4 -35 4 -51t51 -53q43 -35 50 -48.5t-5 -37.5 q-8 -20 -20.5 -27.5t-38.5 -7.5q-37 0 -68 22.5t-98 102.5l-53 63l-48 -26q-47 -31 -88 -47q-41 -20 -51 -35q-4 -6 -31.5 -10t-54 -3t-26.5 7q0 4 14 39q10 23 6 35t-27 38q-53 66 -18 121q23 35 -4 35q-12 0 -41 -8q-92 -27 -141.5 -2.5t-49.5 96.5zM346 825 q0 -14 26.5 -35.5t41.5 -21.5q18 0 -13 35q-55 55 -55 22zM410 999q-8 -12 5 -23t21 -1q6 4 1 14t-13 13.5t-14 -3.5zM563 1188q-6 -4 17 -49q23 -47 22 -74q0 -37 19 -37q29 2 55 68q12 28 14 57q8 66 -4 74q-6 4 -57 -12.5t-66 -26.5z" />
<glyph unicode="8" horiz-adv-x="808" d="M20.5 937q4.5 38 36.5 42q20 4 24.5 14.5t-3.5 53.5q-10 63 -33 102t-24 59.5t22 44.5q39 43 86 2q25 -23 43 -6q18 15 57 29q43 12 139.5 6t125.5 -24q33 -23 67 -11q45 18 75 11t81 -46q57 -43 69.5 -70.5t-12.5 -56.5q-43 -49 -110 9q-33 29 -44.5 24.5t-11.5 -43.5 q0 -33 -20 -73q-20 -37 -21 -41q0 -4 56 -41q88 -61 106 -164q16 -92 -43 -107q-8 -4 -18 -4q-31 0 -45 25q-10 16 -15.5 15t-15.5 -19q-43 -66 -105.5 -96.5t-158.5 -30.5q-111 0 -177.5 56t-74.5 157q-6 72 -33 110q-27 35 -22.5 73zM172 1067q-4 -18 2 -31 q10 -16 21.5 -11.5t11.5 24.5q0 27 -14 34q-12 8 -21 -16zM274 854q0 -10 40 -48t53 -38q14 0 14 20q0 23 4 29q2 7 -51 27q-59 16 -60 10zM348 1100q4 -14 19 -35q27 -33 20 -66q-6 -23 -3 -26.5t26 2.5q57 16 85.5 51t14.5 74q-10 20 -25 6q-16 -16 -49 -16t-53 14 q-37 16 -35 -4zM443.5 675.5q17.5 -12.5 50.5 24.5q16 18 16 24.5t-21 14.5q-16 10 -24 8t-16 -18q-23 -41 -5.5 -53.5z" />
<glyph unicode="9" horiz-adv-x="792" d="M21 945q2 22 14 36q23 25 22 90q0 127 93 213q47 45 61 78q18 31 57 36t56 -24q12 -25 75 -41q102 -27 147.5 -92t45.5 -186q0 -96 24 -127q27 -31 21 -72q-8 -39 27 -74q57 -53 18 -92q-14 -14 -49 -15t-51 15q-14 14 -66 -26q-68 -55 -159 -66.5t-97 33.5q-8 51 -43 10 q-18 -20 -37 -20q-23 0 -46 23.5t-23 41.5q0 20 -35 49q-20 16 -29.5 41t-17.5 84q-10 63 -8 85zM150 1067q0 -18 6 -18q14 0 73 43q54 38 13 38q-16 0 -39 21q-16 14 -22.5 13t-14.5 -19q-8 -12 -12 -36t-4 -42zM270 690l10 -1q11 -1 29.5 0t38.5 3q33 4 51.5 8.5t33 13.5 t30.5 27q51 57 6 66q-27 4 -115 -8q-27 -4 -39 -14.5t-24 -39.5q-20 -47 -21 -55zM463 987q8 -8 21.5 3.5t13.5 27.5q0 18 -13 18q-10 0 -19 -21.5t-3 -27.5zM641 1061q16 23 54 28t53 -16q14 -14 24 -76q8 -59 -14 -84q-25 -27 -55.5 -23.5t-55.5 34.5q-55 69 -6 137z" />
<glyph unicode=":" horiz-adv-x="585" d="M29 1262q16 23 82 18q67 -2 75 18q6 20 90 17l84 -4l5 -43q4 -31 11 -38t40 -7q20 0 32.5 -5.5t26.5 -20.5t39 -50q43 -61 51 -88t-12 -47q-29 -29 -87 -6.5t-58 61.5q0 20 -27 41.5t-47 17.5q-23 -4 -27 -67q-2 -63 -18 -82q-12 -14 -29.5 -64.5t-17.5 -52.5 q-6 -14 4 -19t51 -7q43 -4 54 -10.5t14 -28.5q6 -37 45 -74q33 -33 37 -54.5t-21 -48.5q-41 -45 -102 3q-33 27 -82 26q-49 0 -58 27q-10 23 -53 61q-43 35 -42 76t46 137q47 98 42 136t-68 71q-59 31 -78 55.5t-2 51.5z" />
<glyph unicode=";" horiz-adv-x="813" d="M41 793q-53 57 43 106q61 29 82 23q14 -8 133 -19l115 -8l6 -47q4 -27 13 -39t34 -21q63 -20 79.5 -50.5t-16.5 -65.5q-39 -43 -110 -4l-39 20l-27 -59q-49 -109 -180 -99q-29 2 -39 5.5t-13 11.5t-3 26q0 29 8 36t51 14q25 4 46.5 14t34.5 24.5t13 28.5q0 8 -47 49 q-31 29 -48 34t-56 1q-35 -6 -50.5 -2t-29.5 21zM236 1276q-6 70 2 90q8 18 90 16l86 -4v-174h-174zM368 1113.5q1 9.5 17 29.5q25 25 42 24.5t50 -24.5q55 -45 148 -6q49 20 84 20q20 0 39.5 -10t33 -24.5t13.5 -30.5t-12.5 -33t-31 -27t-36.5 -10q-39 0 -76 -18 q-66 -35 -144.5 -12.5t-113.5 87.5q-14 25 -13 34.5z" />
<glyph unicode="&#x3c;" horiz-adv-x="1146" d="M21 890q2 38 16 50q23 16 76 35q55 18 106 63q29 27 47.5 33t52.5 2q53 -8 136 31q92 39 176 59q92 23 119 41q61 41 100 -24q35 -55 23.5 -113.5t-50.5 -76t-88 13.5q-25 16 -94 18q-72 0 -109 -31q-37 -33 -26 -43q10 -10 84 6q80 14 113.5 13.5t56.5 -21.5 q16 -16 22 -31.5t-1 -29t-23.5 -24.5t-44 -19t-62.5 -13q-66 -6 -95.5 -19t-23.5 -32q6 -16 99 -49q45 -18 62.5 -27.5t24.5 -19.5t9 -31q4 -41 -18 -43q-20 0 -103 31q-55 20 -92 24.5t-106 0.5q-63 -2 -95 3t-47.5 21.5t-19.5 52.5q-4 31 -33 37t-66 -18 q-35 -23 -67.5 -9.5t-32.5 50.5q0 35 -14 41q-14 10 -12 48zM258 872.5q8 -12.5 55 -32t62.5 -16.5t27.5 36q10 29 5 36t-48 17q-55 14 -62 13.5t-28 -21.5q-20 -20 -12 -32.5zM761 662.5q3 15.5 21 44.5q27 43 83.5 93t86.5 56q29 8 60 55q16 29 28.5 37t32.5 4 q51 -6 55.5 -49t-41.5 -108q-29 -45 -63 -52q-66 -10 -129 -102q-31 -43 -70 -48t-57 34q-10 20 -7 35.5z" />
<glyph unicode="=" horiz-adv-x="903" d="M24.5 1177.5q-18.5 92.5 28.5 143.5q35 41 72 12.5t29 -90.5q-8 -41 6 -72q12 -20 41.5 -24t163.5 -4h190l68 71q115 123 217 74q41 -18 46 -51t-25 -56.5t-75 -21.5l-55 4l-43 -88q-41 -82 -47 -145l-4 -62h-496v41q0 29 11.5 35t72.5 8q84 6 84 13q0 16 -31.5 29.5 t-68.5 15.5q-53 0 -103 32q-63 43 -81.5 135.5zM430 1038q0 -12 33 -26t45 2q31 37 -27 35q-47 0 -51 -11z" />
<glyph unicode="&#x3e;" horiz-adv-x="1056" d="M21.5 1217.5q3.5 19.5 19.5 19.5q17 0 35 20q18 25 53 17t49 -39q18 -37 45 -52.5t146 -58.5q102 -37 123.5 -40t42.5 16q47 43 111.5 58.5t117.5 -1.5q33 -12 45 -8t33 29q33 39 83 39t83 -39q31 -37 30 -60q0 -29 -27.5 -49t-54.5 -12q-33 6 -65 -27q-27 -29 -58.5 -32 t-89.5 20q-66 27 -63 8q0 -10 22 -25q39 -27 27 -61.5t-67 -60.5q-63 -31 -93 -76q-27 -47 -78 -62.5t-92 7.5q-27 16 -53.5 12t-134.5 -43q-152 -55 -172 -55q-18 0 -14 43q2 33 19 44t106 44q156 57 159 75q0 10 -24 21l-29 10q-109 37 -152 156q-23 63 -51 84 q-18 12 -26.5 35.5t-5 43zM262 1051q0 -10 64 -35q63 -25 104 -70q29 -31 38 -35t21 11q23 29 -1.5 50t-110.5 52q-113 33 -115 27z" />
<glyph unicode="?" horiz-adv-x="800" d="M41 821q-53 57 20 88q41 20 115 21q41 0 58.5 2t25.5 9t19 26q18 35 40 55q35 29 17 39q-4 2 -10 2q-18 0 -55.5 -47t-51.5 -47q-16 0 -59 39q-80 61 -19 116q31 25 72 93q39 57 58.5 77.5t50.5 26.5q20 4 32 8q12 0 84 -18q76 -20 103 -4q29 16 51 2q23 -16 65 -37 q92 -43 78 -172q-10 -70 -31.5 -93.5t-74.5 -23.5t-62.5 -10t8.5 -45q20 -35 17 -82l-4 -43l74 -4q82 -6 109.5 -38t-11.5 -75q-23 -25 -64 -24q-45 0 -65 -35q-23 -31 -52.5 -30t-33.5 34q-4 29 -46 63.5t-73 34.5q-20 0 -27.5 -7t1 -16.5t28.5 -17.5q55 -20 55 -80.5 t-53 -75.5q-35 -8 -62.5 10.5t-37.5 55.5l-13 43l-22 -43q-20 -43 -45 -43t-39 -16q-37 -37 -55 34q-20 80 4 125q8 16 22 17q16 0 39 -21q14 -14 22.5 -10t28.5 37q29 49 23 61q-10 12 -121 13q-70 0 -94.5 5t-38.5 21zM348 1133q6 -43 14 -43q2 0 54 28l49 31l-31 25 q-25 18 -50.5 22t-35.5 -12q-6 -8 0 -51zM391 877q-4 -41 10.5 -48.5t38.5 19.5q16 18 17.5 29.5t-6.5 31.5q-31 68 -52 13q-4 -16 -8 -45z" />
<glyph unicode="@" horiz-adv-x="997" d="M20 1122q0 41 38 56.5t100 -0.5q37 -10 37 8q0 25 55 83.5t96 78.5q53 23 132 18.5t118 -35.5q39 -27 84 -18q47 6 108 -27q92 -55 127 -121.5t-10 -107.5q-29 -25 -60.5 -16.5t-58.5 49.5q-33 47 -41 49q-8 4 -8 -80q-2 -84 -26 -137q-27 -51 -35 -113 q-4 -39 -11.5 -51.5t-27.5 -14.5q-31 -4 -43 9q-20 20 -130 2.5t-110 -41.5q0 -12 33 -26.5t80 -22.5q37 -6 46 -14.5t9 -35.5q0 -18 -3 -26t-10 -12.5t-24 -6.5q-111 -12 -213 97q-45 43 -60 52t-32 -1q-25 -16 -42 -14t-40 22q-53 47 21 115q31 31 36 47t1 69 q-6 53 -15.5 66.5t-56.5 38.5q-37 16 -50.5 29.5t-13.5 31.5zM254 977q-10 -25 2 -72t29 -53q6 -2 9 0t4 9t0 18.5t-3 29.5q-12 90 -31 82q-6 -2 -10 -14zM295 1141q27 -2 119 41q113 51 112 71q0 9 -18 17q-45 16 -101.5 -4.5t-97.5 -69.5q-45 -55 -14 -55zM489 854 q16 -8 48.5 16.5t40.5 51.5q6 25 -0.5 56.5t-21.5 31.5t-36.5 -37t-30 -72t-0.5 -47zM616 1090q8 -14 20.5 -12t12.5 18q0 18 -12 26t-20.5 -6t-0.5 -26zM838 733q0 63 13.5 118.5t33.5 78.5t44.5 24.5t40 -17.5t6.5 -138t-30 -140q-33 -41 -70.5 -15t-37.5 89z" />
<glyph unicode="A" horiz-adv-x="874" d="M20 748q0 41 21.5 85t52.5 66q27 18 30 26.5t-13 30.5q-22 31 -22 65q-1 17 5 33q16 52 76 83q39 23 39 43q-1 24 22 47q20 22 41.5 22.5t46.5 -22.5q12 -12 17.5 -14.5t9.5 -0.5t10 15q13 23 35 23h5q26 -2 42 -29l21 -29l16 29q14 31 42 27.5t89 -44.5q41 -29 55.5 -46 t18.5 -44q2 -29 13.5 -40t47.5 -25q45 -16 70 -36t35 -46.5t10 -67.5q-2 -72 -27 -119q-23 -35 -37 -40q-8 -3 -31 -3q-19 0 -48 2q-30 1 -51 1q-43 0 -52 -5q-2 -1 -2 -6q0 -15 12 -57q16 -58 33 -116t13 -60q-8 -8 -39 -9q-18 0 -30.5 12.5t-27.5 47.5q-18 45 -30.5 53 t-55.5 8q-39 0 -52 -7t-25 -30q-18 -37 -66 -43q-8 -1 -14 -1q-36 0 -54 26q-18 29 -28.5 25.5t-28.5 -43.5q-18 -47 -51 -48q-35 1 -39 15q-1 2 -1 6q0 18 17 65q19 55 19 72q0 6 -2 8q-10 8 -47 9q-35 0 -63 26.5t-28 59.5zM230 1010q-2 -3 -2 -6q0 -9 12 -21 q16 -12 27 -1.5t1 28.5q-8 12 -20 12t-18 -12zM370 946q7 -12 25 -8q10 4 18.5 11.5t8.5 15.5q0 12 -16.5 16t-26.5 -8q-11 -10 -11 -19q0 -4 2 -8zM498 1026q19 -49 39 -49q7 0 14 6q10 10 10 20t-12 35q-20 37 -39 37q-4 0 -8 -2q-10 -4 -10 -19q0 -11 6 -28zM621 884 q10 -10 51 -10q57 0 57 27l-8 14q-12 12 -47 21q-8 2 -15 2q-23 0 -34 -20q-8 -15 -8 -24q0 -6 4 -10z" />
<glyph unicode="B" horiz-adv-x="917" d="M27 940q8 14 61 45t119 57q31 12 43 62q10 45 39 70q18 14 52 18t132 4q94 0 148.5 -5t88 -17.5t58.5 -36.5q39 -37 82 -45l45 -11l2 -90q0 -14 1 -26q0 -37 -5 -59q-6 -30 -27 -66l-32 -64l36 -71q23 -43 27 -67q2 -10 2 -20q0 -16 -4 -34q-8 -42 -8 -90v-19 q2 -41 -2 -48q-2 -4 -9 -4q-6 0 -16 3q-37 10 -45 6q-8 -2 -233 -4l-222 -2l-4 102q-6 100 -16 113q-10 12 -21 78q-3 18 -3 33q0 38 18 57q16 18 11 25.5t-50 27.5q-57 25 -71.5 26t-30.5 -20q-16 -20 -82 -20q-43 0 -57.5 6t-24.5 29q-9 19 -9 34q0 13 7 23zM446 956 q0 -78 19 -92q23 -20 29 10q4 19 8 82q2 29 2 48q0 14 -1 22q-3 18 -16 21q-5 1 -9 1q-17 0 -24 -14q-8 -16 -8 -78zM447 530q0 -11 6 -22q6 -18 59 -20q8 0 15 -1q43 0 69 13q29 16 25 35.5t-39 19.5q-31 0 -80 8q-16 2 -28.5 0t-18.5 -9q-8 -9 -8 -24zM735 979 q-18 -25 -18 -47q0 -27 26 -51q21 -19 27 -19q7 0 21 21q19 24 19 51q0 24 -15 49q-14 26 -26 26h-1q-12 -1 -33 -30z" />
<glyph unicode="C" horiz-adv-x="788" d="M20 805q0 47 13.5 68.5t56.5 39.5q29 14 38 29.5t13 61.5q12 86 51 137t117 80q29 11 119 11h16q104 -1 123 -13q16 -10 17 -27q0 -12 30 -47q35 -43 56 -103q20 -57 28 -152q3 -34 4 -59q0 -43 -10 -53q-14 -16 -18 -63q-2 -29 2 -38t20 -13q27 -4 50.5 -26t23.5 -40 q0 -42 -50 -62q-23 -9 -45 -9q-26 0 -50 12q-7 4 -18 4q-27 0 -75 -25q-72 -35 -126 -41q-14 -1 -26 -1q-22 0 -36 4q-22 7 -68 40q-68 47 -106 47q-70 0 -70 72q0 37 -40 76t-40 90zM242 782q-4 -6 -4 -10q0 -5 6 -6q4 0 37 -2q31 -2 52 -26.5t21 -55.5q0 -23 14.5 -42 t28.5 -19q9 0 9 57v12q-4 68 -29 86q-23 16 -75 18.5t-60 -12.5zM354 1129.5q0 -13.5 28 -13.5t28 13.5t-28 13.5t-28 -13.5zM528 1055.5q0 -13.5 8 -16.5q3 -1 6 -1q5 0 10 4q7 6 7 14.5t-7 13.5q-4 3 -9 3q-3 0 -7 -1q-8 -3 -8 -16.5z" />
<glyph unicode="D" horiz-adv-x="866" d="M20 925q0 13 19 31q15 18 33 22q6 1 18 1q19 0 51 -4l78 -10v114q0 115 10 121q8 10 108 10q25 0 56 -1q154 -3 182 -15q39 -16 105 -16q33 0 46 -3.5t19.5 -11.5t12.5 -28q8 -23 8 -41q0 -15 -6 -27q-12 -25 -12 -201q0 -127 4 -152.5t22 -25.5q27 0 50.5 -23.5 t23.5 -50.5q0 -43 -72 -79q-14 -8 -27.5 -23.5t-26.5 -38t-20 -31.5q-14 -18 -60 -20h-11q-39 0 -66 12q-29 14 -182 25l-158 8l-6 53q-8 55 -33 58q-35 8 -48 27.5t-13 64.5q0 61 -37 104q-39 43 -55 98q-13 40 -13 53zM312 1002q1 -32 7 -33q10 0 62.5 59.5t52.5 71.5 q0 14 -50 17q-10 1 -18 1q-34 0 -44 -10q-4 -6 -8 -40q-3 -26 -2 -52v-14zM321 568q3 -10 13 -10.5t22 7.5q18 18 0 31q-14 10 -28 -6q-8 -9 -8 -18q0 -2 1 -4zM440 896q0 -21 33 -52q31 -27 40.5 -30t23.5 15q27 39 27 89q0 8 -1 16q-4 40 -27 40q-16 0 -40 -18 q-56 -36 -56 -60zM506 621q-3 -6 -3 -12q0 -9 7 -15q12 -12 39 -12h3q28 0 28 12q0 9 -15 24q-15 14 -33 16h-4q-15 0 -22 -13z" />
<glyph unicode="E" horiz-adv-x="968" d="M29 848q-6 24 -6 42t6 30q12 22 86 88q59 51 70.5 71.5t17.5 73.5l6 78l51 4q31 2 47.5 13t34.5 44q36 52 73 52h7q41 -5 51 -66q2 -25 21.5 -31t115.5 -10q100 -6 117.5 -11t22.5 -30q2 -38 -42 -106q-42 -65 -68 -64h-3q-14 2 -21.5 -5t-9.5 -26q-4 -33 -18 -49 q-3 -4 -3 -10q0 -23 31 -80q12 -20 23.5 -36.5t18 -26t8.5 -7.5q1 1 1 6q0 17 -18 80q-10 41 -13 58.5t0 29t13 29.5q22 31 53 31h7q25 -2 30.5 -13.5t5.5 -58.5q0 -63 21 -137q12 -49 20.5 -59.5t30.5 -3.5q66 16 87.5 16t33.5 -14q11 -15 11 -33q0 -12 -5 -25 q-12 -33 -49 -53q-39 -20 -104 -84l-62 -66l-158 -8q-160 -6 -235 -14q-26 -3 -44 -3q-20 0 -30 3q-20 6 -76 47q-29 20 -42 30.5t-22 24t-11 22.5t-2 30q0 27 6 43t19 25t36 16q37 6 23 28q-10 16 -48 25q-59 12 -81.5 29.5t-34.5 60.5zM297 733q1 -29 15 -37q5 -3 9 -3 q11 0 23 12q14 12 13 20t-17 29q-20 25 -31.5 19.5t-11.5 -40.5zM297 1092q0 -14 14 -23q2 -1 4 -1q5 0 7 7q2 4 2 6q0 23 -13.5 23t-13.5 -12zM471 1130q0 -14 35 -14t61 -22q17 -15 23 -15q7 0 20 19q14 19 14 29q0 3 -1 6q-7 11 -69 11h-11q-72 -1 -72 -14z" />
<glyph unicode="F" horiz-adv-x="907" d="M20 1030q0 41 31 76t78 43q41 10 51 43l15 31h260q166 0 216 -3t60 -18q13 -14 40 -14q11 0 24 2q45 8 61 -6q20 -18 28 -66q4 -25 5 -52q0 -25 -4 -52q-8 -53 -46 -94t-89 -56q-16 -4 -25.5 -10t-13.5 -16.5t-9 -28.5q-6 -43 -28.5 -59.5t-50.5 2.5q-27 18 -54.5 16 t-33.5 -20q-4 -10 -1 -21.5t11 -20t21.5 -13.5t27.5 -5q29 0 62.5 -27.5t33.5 -52.5q0 -16 -19.5 -38.5t-44 -39t-42.5 -16.5q-33 0 -88 64q-45 50 -59 50q-2 0 -3 -1q-4 -2 -6 -13q-41 -113 -68 -114q-16 -2 -41 35q-16 24 -26 24q-15 0 -21 -45q-2 -14 -6 -21.5t-13 -9.5 t-26 -2q-29 0 -35 11.5t-12 74.5q-4 29 -8 78q-14 168 -23.5 202t-46.5 66q-10 8 -16 13q-41 37 -53.5 56t-12.5 48zM277 988q2 -14 10 -25t22 -15q29 -12 29 6q-2 12 -16 41q-25 51 -35 35q-4 -6 -6 -14q-5 -10 -5 -21q0 -4 1 -7zM294 774q9 -46 21 -45q18 0 49 36t29 54 q-4 20 -46 27.5t-52 -10.5q-5 -8 -5 -25q0 -15 4 -37zM412 1114q4 -12 14 -12q6 2 51 2q33 2 33 12q-9 14 -43 14q-14 0 -31 -2q-25 -4 -24 -14zM702 1008q0 -8 10 -12q5 -2 10 -1q6 1 12 3q12 4 18 12q4 7 4 13q0 9 -8 15q-6 4 -13 4q-8 0 -16 -8q-16 -16 -17 -26z" />
<glyph unicode="G" horiz-adv-x="856" d="M20 774q0 20 25 65.5t55.5 86.5t44.5 47q23 10 41 57q14 33 13.5 47.5t-21.5 46.5q-16 29 -19 44.5t7 35.5q14 31 49 32h2q34 0 76 -28q25 -18 49 -24q17 -4 48 -4h22q10 1 19 1q65 0 120 -24q39 -17 62 -17q13 0 20 5q16 16 41 -4q16 -16 59 -35q55 -25 69 -84 q3 -17 3 -34q0 -40 -23 -76q-32 -50 -94 -50q-51 0 -53 -22q-2 -14 29 -21h4q18 -2 24 -16.5t8 -65.5t9.5 -66.5t31.5 -29.5q29 -14 63 -60t34 -69q0 -18 -25 -42t-43 -24q-23 0 -53 35q-29 29 -53 31h-3q-23 0 -59 -25q-25 -16 -57.5 -21t-112.5 -5q-119 0 -164 22.5 t-75 94.5q-27 59 -70 81q-102 55 -103 115zM262 764q0 -23 35 -39q31 -14 31 4q-1 9 -9 23q-20 33 -47 26q-10 -4 -10 -14zM371 551q4 -8 27 -15q21 -8 41 -8h3q21 1 21 11q0 14 -51 26q-45 8 -41 -14zM438 1056q4 -9 15.5 -12.5t25.5 0.5q37 10 37 19q-4 6 -14 12 q-20 15 -35 15t-25 -15q-5 -7 -5 -13q0 -3 1 -6zM547 707q-2 -6 -2 -11q0 -16 18 -30q12 -9 23 -9q6 0 12 3q10 7 10 22q0 6 -2 14q-4 25 -28 29q-3 1 -6 1q-18 0 -25 -19z" />
<glyph unicode="H" horiz-adv-x="894" d="M20 588l11 149q8 117 21.5 153t51.5 42q18 2 23.5 15.5t9.5 58.5q1 11 1 21q0 55 -19 83q-18 27 -17.5 35t23.5 26q30 25 62 25q28 0 57 -20q23 -14 31 -12.5t26 24.5q28 36 74 36q9 0 19 -2q60 -8 134 -65q49 -41 58 -41q6 0 12 37q2 23 10 31t29 10q37 4 49 -20 q14 -27 45 -21h5q30 0 83 -47q35 -33 46.5 -52.5t11.5 -49.5q0 -43 -20.5 -72t-49.5 -29q-27 0 -32 -17.5t9 -58.5q9 -24 9 -42q0 -48 -60 -56l-39 -8l-12 -266h-80l-4 96q-6 96 -16 96q-12 0 -23 -80q-10 -104 -46 -104h-1q-20 0 -37 45q-14 33 -39 33q-14 0 -46 24.5 t-50 20.5q-27 -8 -51 14q-31 27 -41 -8q-6 -20 -12 -70q-10 -74 -40 -75h-1q-30 0 -101 69zM301 1070q0 -34 13.5 -34t13.5 34t-13.5 34t-13.5 -34zM536 809q-3 -5 -4 -9q0 -6 7 -9q4 -3 8 -3q2 0 5 1q7 2 11 8t4 14q0 10 -12 10q-11 0 -19 -12z" />
<glyph unicode="I" horiz-adv-x="921" d="M20 1012q-2 37 33 59q33 23 39 45q8 25 58 55q35 20 67.5 24.5t132.5 4.5h15q136 0 188 17q48 18 103 17q60 0 128 -20q119 -33 119 -108q0 -54 -43 -74q-17 -8 -34 -8q-27 0 -54 20q-27 17 -68 17h-12q-35 -4 -43 -11.5t-8 -35.5q0 -49 18 -47q8 0 13 26q6 35 34 35 q20 0 52 -18q37 -23 76 -41q28 -12 28 -57q0 -48 -16 -62q-12 -8 -11 -25.5t19 -64.5q20 -64 20 -121q0 -16 -2 -31q-2 -21 -2 -38q0 -43 11 -60q10 -14 7 -23.5t-18.5 -20.5t-71.5 -14q-34 -2 -105 -2q-47 0 -111 1l-263 4l-4 32q-4 31 -32 68q-27 31 -50 78q-10 29 -9 40 t16 27q25 27 46 26t50 -28q23 -20 31 -21t24 15q25 23 54.5 22t41.5 -26q18 -35 41 -24q12 8 11 26q-4 29 -43 39q-70 18 -111 96q-16 35 -55 38t-49 -29q-10 -27 -41 -41q-23 -10 -36.5 -6t-45.5 30q-53 41 -95.5 101.5t-42.5 93.5zM194 990q4 -34 33 -52q31 -23 39 -21.5 t8 25.5q0 27 39 45q48 26 48 51q0 12 -11 23q-15 15 -54 15h-14q-50 -3 -67 -23q-22 -25 -22 -55q1 -4 1 -8zM641 713q-1 -3 -1 -6q0 -6 7 -7q15 0 15 14.5t-5 14.5q-8 0 -16 -16zM649 554q0 -13 19.5 -13t19.5 13t-19.5 13t-19.5 -13z" />
<glyph unicode="J" horiz-adv-x="798" d="M45 641q-24 22 -24 55q0 42 38 103q39 66 39 114q0 49 26 74q22 22 59 22q6 0 12 -1q35 -4 47 16t26 113q7 41 13 57q4 16 186 16q131 0 157.5 -4t34.5 -26q12 -27 68 -84q53 -51 53 -100q0 -51 -59 -101q-20 -16 -23.5 -30.5t4.5 -51.5q5 -24 5 -46q0 -43 -17 -81 q-26 -59 -112 -147q-59 -59 -146 -73q-26 -5 -50 -5q-62 0 -120 26q-59 27 -96 27q-29 0 -61.5 30.5t-32.5 55.5q0 16 -27 41zM324 563q7 -9 37 -9q18 0 43 4q69 8 69 24q0 10 -45 36l-45 27l-35 -37q-27 -27 -27 -39q0 -4 3 -6zM397 889q25 -18 31 -31.5t0 -36.5 q-6 -35 8 -46q4 -4 9 -4q11 0 26 15q18 14 45 14q8 0 16 -1q35 -6 35 6q-2 18 -59 57q-49 33 -68.5 59.5t-19.5 59.5q0 28 -8 28q-6 0 -15 -12l-20 -32q-12 -31 -12 -42q0 -10 32 -34z" />
<glyph unicode="K" horiz-adv-x="802" d="M20 1122q6 45 68 47q37 0 51 27q12 23 42 27t46 -13q14 -14 54 2q29 10 46 6t58 -26q61 -39 61 -49q0 -15 10 -15q15 0 54 37q8 9 18 19q41 43 71 49q6 1 14 1q28 0 71 -17q68 -29 92 -67q10 -16 9 -31q0 -21 -19 -40q-16 -18 -40 -15t-75 28l-59 28l-45 -51 q-42 -49 -42 -68q0 -2 1 -4q4 -25 24 -24q8 4 11 14q0 14 13 29.5t32.5 24t36.5 6.5q31 -4 59 -58q41 -73 50 -103q5 -16 5 -36q0 -18 -4 -41q-4 -37 -18.5 -61.5t-55.5 -63.5q-55 -53 -61 -81q-1 -4 -1 -8q0 -25 32 -54q33 -31 33 -47q0 -4 -2 -6q-7 -14 -50 -13h-12 q-25 0 -38 1t-30.5 -3t-34 -10t-44.5 -17q-31 -12 -68 -12h-11q-44 2 -59 21q-16 18 -8 61q2 12 2 23q0 27 -14 45q-31 31 -45.5 21.5t-16.5 -60.5q-4 -47 -10 -55.5t-35 -8.5h-41l-4 92q-2 68 -9 87.5t-40 50.5q-29 27 -38 45t-9 57q0 45 16.5 69.5t55.5 37.5 q27 10 21.5 53t-36.5 57q-80 41 -82 92zM432 786q-4 -4 -4 -10q0 -7 8 -16q7 -8 16 -8h4q12 2 38 22q43 33 73 37q20 2 27.5 10.5t7.5 26.5q0 37 -22 37q-10 0 -17 -17q-8 -23 -65 -47q-56 -25 -66 -35z" />
<glyph unicode="L" horiz-adv-x="759" d="M20 829q0 16 48 54q44 34 44 59q0 24 -38 57q-39 34 -39 72q0 7 1 14q9 45 73 84q51 35 59 62q12 33 47 35h4q31 0 39 -29q8 -27 49 -51l43 -25l43 37q37 35 63.5 37t53.5 -25q17 -19 17 -54q0 -14 -3 -30q-3 -17 -3 -32q0 -33 16 -52q14 -20 20 -16q10 2 76 90l4 4 q30 37 56 37q17 0 34 -16q14 -16 14 -39q0 -6 -1 -13q-5 -32 -38 -102q-31 -62 -31 -87q0 -10 5 -15q14 -14 14 -51q0 -30 -32 -54q-27 -20 -57 -21q-5 0 -11 1q-6 -2 -10.5 -1t-7.5 -3t-5 -8.5t-4 -15.5t-3 -22.5t-1 -31.5l-4 -82l78 -4q41 -2 54 -5t18.5 -10.5t5.5 -29.5 v-39h-537l-6 98q-4 59 -10 82t-23 33q-37 20 -76 57t-39 51zM356 849q-1 -5 0 -9q0 -8 2 -18q4 -14 13 -19q10 -7 15 -7q6 0 5 8q0 33 -24 58q-9 0 -11 -13z" />
<glyph unicode="M" horiz-adv-x="817" d="M20 723q0 44 50 104q23 31 32 49.5t11 40t2 72.5q0 102 -15 127q-10 10 -8 28.5t6 31t12.5 29t10.5 22.5q8 23 40 23q1 0 2 1q31 0 46 -20q6 -8 10 -11t9 -3t9.5 3t12.5 11q27 23 50.5 15.5t55.5 -50.5q36 -45 36 -75q0 -6 -1 -11q-6 -27 2 -37t27 4q16 16 45 -8 q14 -12 21.5 -15t14.5 6t13 29.5t16 61.5q14 61 32 81.5t52 14.5q20 -2 25.5 -16t9.5 -74q4 -90 17 -100q12 -14 12 -45q0 -20 6 -24.5t35 1.5q13 3 25 3q55 0 55 -74q0 -45 -16.5 -63.5t-55.5 -18.5t-56.5 -46.5t-17.5 -150.5q0 -111 -8 -125q-9 -12 -34 -12h-8 q-32 2 -46 18q-16 20 -49 19.5t-64 -19.5q-29 -20 -55 -20q-9 0 -17 2q-34 10 -48 49q-14 47 -33 60.5t-47 -1.5q-33 -14 -37 -59q-4 -29 -11.5 -36t-33.5 -7q-18 0 -26.5 3t-11.5 12t-5 34q-4 49 -51 84q-48 38 -48 82z" />
<glyph unicode="N" horiz-adv-x="854" d="M24 852q-4 30 -4 53t5 37q10 29 41 41q23 8 27.5 24.5t4.5 86.5q0 100 8 106q8 10 48 10q23 0 40 -16t52 -78q57 -94 67 -94q25 0 2 47q-2 2 -4 6q-10 14 -3 29.5t44 52.5q43 41 57.5 47t57.5 -4q30 -8 49 -8q17 0 27 6q20 14 49 11t35 -19q16 -49 22 -53t43 18 q41 25 66.5 26t50.5 -20q26 -24 26 -45q1 -12 -7 -22q-20 -30 -117 -76l-78 -39v-61q0 -37 7 -54.5t30 -36.5q25 -18 32 -39.5t9 -82.5q2 -33 2 -54t-2 -29q-4 -18 -33 -40q-39 -29 -45 -72q-4 -27 -13.5 -35t-35.5 -12q-5 -1 -11 -1q-33 0 -47 23q-12 23 -51 29t-49 -14 q-12 -16 -31.5 -10t-29.5 30q-10 31 -36 33t-50 -25q-25 -29 -48 -28q-23 0 -38 -21q-19 -17 -44 -17q-5 0 -10 1q-20 2 -28.5 10t-10.5 29q-4 37 -30 61q-20 18 -24.5 48t13.5 46q5 6 5 18q0 19 -11 54q-21 61 -29 123zM368 1002q-2 -3 -3 -6q1 -5 7 -8q10 -5 27 -5 q27 0 62 -31.5t45 -64.5q10 -25 22 -25q8 0 10 42q1 15 1 31q-1 27 -3 57q-4 46 -12 55q-15 15 -30 15h-2q-16 -1 -46 -20q-41 -23 -57 -28q-15 -4 -21 -12z" />
<glyph unicode="O" horiz-adv-x="757" d="M37 752q-16 23 -16 45q0 43 63 77q55 29 63.5 50.5t-26.5 48.5q-27 25 -34 53q-4 18 -4 57q0 23 1 52q2 66 29.5 91t97.5 25q67 1 96 15q19 8 78 8h25q70 -4 140.5 -46t78.5 -83q4 -23 17 -74t23.5 -97t14.5 -87q10 -86 27 -107q18 -20 26 -67q1 -11 1 -21q0 -18 -4 -28 q-7 -18 -42 -54q-53 -55 -65 -55t-43 -39q-16 -27 -37 -35t-78 -14q-42 -4 -71 -4q-26 0 -43 3q-36 7 -87 42q-47 33 -75 33q-27 0 -67 44t-54 89q-20 55 -35 78zM334 813q-1 -5 -1 -9q0 -11 7 -16q4 -2 11 2.5t14.5 12.5t14.5 18t11 22.5t4 20.5q0 23 -14 31 q-8 6 -17.5 -10.5t-29.5 -71.5zM360 1061q20 -31 20.5 -54.5t10.5 -23.5q12 0 44 46.5t32 62.5t-45 21q-12 1 -22 1q-29 0 -44 -10q-11 -6 -11 -14q0 -10 15 -29zM395 614.5q0 -47.5 13.5 -47.5t13.5 47.5t-13.5 47.5t-13.5 -47.5zM547 936q6 -12 18 -18q3 -1 5 -1 q12 0 12 17q0 22 -19 22h-2q-15 0 -15 -12q0 -3 1 -8z" />
<glyph unicode="P" horiz-adv-x="905" d="M20 894q-1 21 -1 39q0 58 12 73q18 20 49 15t49 -34q22 -29 52 -29h7q27 2 32 17.5t11 97.5l7 111l49 26q45 25 87 26h4q41 0 93 -19q55 -19 88 -19h5q34 2 77 33q45 31 97 33h7q48 0 74 -27q28 -28 28 -82q0 -49 -26 -80q-27 -37 -45 -137q-2 -18 11.5 -29.5t58.5 -34.5 q42 -19 42 -59q0 -64 -108 -184q-80 -85 -123 -105q-19 -9 -38 -9l-48 15q-31 20 -38 20.5t-7 -22.5q0 -41 -47 -61q-19 -8 -34 -8q-23 0 -39 18q-20 27 -46 27t-36 -27q-8 -21 -18 -27q-6 -4 -16 -3q-7 0 -16 2q-27 2 -31.5 16t-9.5 88q-6 160 -92 160q-68 0 -100 57 q-17 29 -21 122zM324 1042.5q0 -20.5 14 -20.5t14 20.5t-14 20.5t-14 -20.5zM418 780q0 -18 20 2q6 5 6 9t-13 4t-13 -15zM426 634q-1 -3 -1 -5q0 -10 19 -21q24 -12 32 -12h2q7 2 7 25q0 27 -24 26q-29 0 -35 -13zM485 950q20 -57 33 -22q8 18 8 59q0 84 -22 84 q-6 -2 -17 -10q-17 -17 -17 -46q0 -27 15 -65zM565 815q-1 -17 19 -27q8 -4 17 -5q11 0 20 8q6 3 6 8q0 7 -15 18q-23 17 -35 17t-12 -19z" />
<glyph unicode="Q" horiz-adv-x="892" d="M57 1022q35 27 54 27q25 0 26.5 18t-20.5 43q-27 37 -27 68q0 27 27.5 63.5t56.5 48.5q30 12 61 12q16 0 32 -3q48 -9 124 -50q102 -53 162 -53q125 0 125 -123q0 -41 10 -56.5t57 -45.5q82 -54 82 -105q0 -48 -75 -84q-66 -35 -70 -61q-6 -31 -20 -55q-6 -15 -6 -29 q0 -20 14 -39q14 -16 30 -2q18 14 19 55q0 61 57 92q25 13 45 13q27 0 45 -23q9 -11 9 -30q0 -29 -21 -79q-35 -81 -88 -132q-27 -27 -43 -38.5t-31.5 -15.5t-40.5 -4q-49 0 -77.5 20.5t-28.5 53.5q0 37 -21 37q-20 0 -82 -43q-37 -27 -56 -37t-39.5 -14.5t-59.5 -4.5 q-49 0 -69.5 6.5t-41.5 28.5q-23 23 -28 49.5t-5 126.5v144l-61 55q-62 56 -62 102q0 35 37 64zM252 877q0 -13 31 -41q27 -25 36 -25h1q8 2 14 37q2 23 -4 29t-35 10q-43 4 -43 -10zM456 919q3 -2 7 -2q7 0 16 9q16 14 0 22q-14 6 -22 -8q-5 -7 -5 -13q0 -5 4 -8zM518 1092 q0 -6 12.5 -13.5t25.5 -8.5h6q10 0 16 3q5 5 5 10q0 9 -24 17q-14 4 -23 4q-17 0 -18 -12z" />
<glyph unicode="R" horiz-adv-x="825" d="M20 1143q0 25 29 47q16 16 28.5 18t37.5 -8q27 -10 36 -8t17 20q16 25 61 25q51 0 82 25q40 26 58 32q15 5 38 5q11 0 25 -1q40 -4 94 -18t95 -33q162 -76 184 -162q3 -10 3 -19q0 -49 -71 -75q-18 -6 -18 -41q0 -42 26 -125q10 -39 10.5 -55t-14.5 -41q-16 -29 -14 -37 t31 -28q39 -31 39 -52q0 -10 -4.5 -21t-12.5 -19.5t-18 -15.5t-22.5 -11t-24.5 -4q-27 0 -32 -5.5t0 -21.5t-1 -21.5t-33 -5.5q-43 0 -69 23q-16 14 -25.5 15t-30.5 -11q-63 -41 -131.5 -73.5t-91.5 -32.5q-33 0 -82 53q-33 35 -42 55.5t-9 56.5q0 41 -9 56.5t-48 40.5 q-57 40 -69 64q-5 11 -5 27q0 20 8 46q10 33 24.5 49t45.5 33q33 16 43 29.5t10 39.5q0 31 -32 74t-54 43q-16 0 -39 24.5t-23 43.5zM274 864q0 -43 105 -43q68 0 72 19q1 8 -19 14q-10 4 -30.5 7t-42 5t-41 2h-32t-12.5 -4zM410 646q2 -24 12 -25h1q13 0 21 22q4 10 0 22.5 t-11 16.5t-15 -2q-8 -8 -8 -27v-7zM518 813q5 -4 12 -4q8 1 18 5q20 8 21 22q0 15 -10 15q-8 0 -24 -11q-18 -13 -18 -22q0 -3 1 -5z" />
<glyph unicode="S" horiz-adv-x="972" d="M39 1061q29 29 62 29q18 0 38 -9q6 -2 13 -6q14 -8 29.5 -1t49.5 40q57 51 58 70q0 21 16 37q14 14 38 15h4q21 0 28 -11q5 -6 42 -6q22 0 56 2q23 2 42 2q26 1 44 -3q31 -6 72 -24q70 -29 162 -35q90 -8 130 -35q31 -21 31 -51q0 -9 -2 -18q-8 -33 -42 -51 q-16 -8 -30 -8q-16 0 -30 10q-24 14 -41 14q-26 0 -39 -31q-12 -33 -27 -43q-14 -8 -2 -24q16 -16 17 -90q2 -80 2 -140v-18q0 -53 -10 -109q-10 -41 -18.5 -50t-35.5 -11q-39 -2 -86 -17q-49 -16 -100 -15.5t-104 15.5q-41 10 -99.5 57.5t-58.5 69.5q0 18 -31 39 q-31 18 -51 101q-10 49 -20.5 69.5t-32.5 30.5q-51 27 -52 86q0 23 -20 41q-23 19 -23 39q0 19 21 39zM195 997q0 -14 14 -20q10 0 12 10q0 23 -13 23t-13 -13zM401 795q-4 -7 -4 -13q-1 -6 5 -10q10 -8 22 6q16 16 0 23q-14 6 -23 -6zM457 1055q8 -4 51 10q27 6 37 14.5 t8 20.5q-4 23 -41 26q-9 2 -16 2q-10 0 -16 -4q-9 -6 -17 -28q-9 -24 -9 -34q0 -6 3 -7zM471 700q15 1 31 21q20 25 12 27q-12 2 -31 -19q-16 -19 -16 -26q0 -3 4 -3zM585 928q0 -12 31 -33q22 -13 36 -13q4 0 8 1q16 6 16 35q0 14 -9.5 19t-35.5 5q-46 0 -46 -14z" />
<glyph unicode="T" horiz-adv-x="935" d="M24 924q10 37 64 86q67 63 67 106q0 23 -20 41q-23 16 -20.5 40t26.5 46q18 15 38 17h5q22 0 80 -11q104 -16 230 -22q44 -2 72 -2q36 0 48 3q22 5 58 34q40 35 68 40q5 1 10 1q26 0 67 -19q45 -18 67.5 -55t28.5 -103q3 -28 4 -45q0 -13 -3 -21q-5 -16 -33 -40 q-43 -35 -97 -45q-55 -8 -59 -19q-1 -1 -1 -3q0 -13 42 -62q66 -87 69 -155v-6q0 -64 -61 -101q-41 -27 -43 -49q0 -20 -17.5 -36t-39.5 -16q-26 0 -52 44q-22 36 -21 64q0 6 1 13q6 35 -2 42t-39 -5q-31 -16 -31 -47q0 -18 -7 -28.5t-14 -21.5t-7 -30q0 -35 -22.5 -60.5 t-53.5 -25.5q-35 0 -86 43q-31 25 -49.5 31t-38.5 0q-70 -16 -96 -16l-2 1q-26 0 -45 19q-20 27 -17.5 50.5t29.5 37.5q68 37 75 46t-10 40q-16 39 -71 55t-74 56q-20 38 -20 68q1 10 3 20zM465 819q5 -19 17 -25q7 -3 24 -3t43 2q12 1 22 1q60 0 86 -20q21 -12 28 -12 q3 0 3 2q0 10 -39 65q-33 49 -45 53.5t-47 -14.5q-39 -20 -65 -20q-18 0 -24 -6q-4 -4 -4 -15q0 -3 1 -8zM723 1100q5 -1 10 -1q30 0 45 23q3 6 3 12q0 3 -1 5q-4 25 -20 25v1q-15 0 -37 -22q-18 -20 -18 -30.5t18 -12.5z" />
<glyph unicode="U" horiz-adv-x="894" d="M20 1008q0 16 45.5 58t84.5 58q45 18 50 35t-24 53q-31 35 -34 78v9q0 37 22 61t34 24h1q12 0 36.5 -14t46 -33.5t23.5 -31.5q6 -25 70 -31q63 -10 100 -39l37 -27l51 35q51 35 70 35q6 0 15 10t16 25q4 12 10 19t15 9t24 0q37 -4 41 -30q6 -27 26 -51q16 -16 15.5 -26.5 t-15.5 -39.5q-20 -33 -23 -60.5t11 -37.5q10 -4 59.5 -147.5t49.5 -166.5q0 -27 -103 -143q-31 -33 -45 -39q-7 -3 -19 -3t-30 3q-43 8 -66.5 8t-99.5 -8q-24 -3 -46 -3q-49 0 -93 15q-63 23 -92 23q-27 0 -78 46t-51 71q0 27 28 61q27 35 17.5 47t-64.5 27q-61 16 -88 59 q-27 41 -27 62zM315 1130q0 -16 54 -40q25 -11 39 -11q16 0 14 17q-2 6 -8 18q-16 27 -72 27q-25 0 -27 -11zM522 809q-4 -7 -4 -14q0 -9 6 -15q12 -12 47 -18q21 -5 33 -5q9 0 12 3q8 6 -6 35q-12 20 -45 26t-43 -12zM637 975q0 -15 6 -15q4 0 10 7q11 8 11 16 q0 12 -13.5 12t-13.5 -20z" />
<glyph unicode="V" horiz-adv-x="698" d="M24 966q-3 14 -4 27q0 42 33 78q25 27 25 100q0 74 10 84q8 8 30 8q7 0 15 -1q18 -2 26.5 -12.5t12.5 -39.5q10 -61 24 -66q2 -1 4 -1q15 0 48 39q36 43 64 51q9 2 18 2q21 0 45 -12q10 -6 23 -6q18 0 40 12q40 21 102 29q20 3 36 2q31 0 42 -11q17 -13 17 -66 q0 -21 -3 -47q-9 -96 -40 -157q-29 -59 -29 -74.5t33 -15.5q31 0 57.5 -21.5t26.5 -46.5q0 -23 -31 -51q-31 -29 -39 -98q-4 -29 -5 -40t-9 -25.5t-9 -17.5t-20.5 -8.5t-29 -5.5t-45.5 -4q-86 -10 -103 -32q-18 -25 -38 -25q-5 0 -11 2q-26 8 -49 53l-27 56l-39 -39 q-39 -35 -49 -27q-8 8 -33 -12q-25 -23 -45 -13.5t-20 44.5q0 37 -19 61q-19 25 -19 48q0 26 26 48q16 14 28 15.5t37 -9.5q23 -10 38 -10q30 0 30 37t-99 100q-62 40 -76 98zM252 944q0 -12 28 -36q21 -18 30 -17q3 0 5 2q10 12 -28 47q-31 27 -35 4zM494 1066 q2 -44 12 -44q4 0 10 6t9 15.5t6.5 22t3.5 24.5q1 20 -11 30q-6 5 -11.5 5t-10.5 -5q-8 -8 -8 -40v-14z" />
<glyph unicode="W" horiz-adv-x="720" d="M20 834q0 41 5.5 62.5t17.5 32.5t37 15q29 6 25.5 44t-33.5 69l-27 30l70 152l61 -6q244 -25 302 -28h17q44 0 54 14q14 20 49 16q23 -4 31 -27q8 -33 28 -254q4 -40 4 -61q0 -14 -2 -20q-4 -15 -34 -37q-41 -29 -42 -60t38 -41q59 -14 77 -52q6 -13 6 -26q0 -21 -21 -39 q-23 -20 -63 -21q-14 0 -30 3l-58 8l-10 -53q-14 -80 -49 -80h-2q-37 2 -55 88q-8 39 -16.5 52.5t-24.5 13.5q-10 0 -17.5 -6.5t-14.5 -20.5t-15 -39q-29 -88 -65 -88t-48 86q-10 62 -34 62h-1q-10 -4 -18 -15q-8 -14 -47 -13t-49 13q-8 16 8 47q10 18 7 29.5t-26 34.5 t-29 43t-6 72zM317 1053q4 -23 31 -27q27 -2 84 -33q35 -18 48.5 -20t27.5 8q20 18 20 31q0 14 -26 37q-16 18 -64 26q-27 5 -51 5q-18 0 -34 -3q-38 -6 -36 -24zM436 827q0 -8 15 -32q10 -20 20 -20q2 0 5 1q13 6 13 33t-26 27q-27 0 -27 -9z" />
<glyph unicode="X" horiz-adv-x="788" d="M20 756q0 20 30 49t67 43t69 65q33 51 50 62q18 12 11 44t-32 50q-29 18 -32 34.5t20 41.5t6 43q-8 11 -8 19q-1 17 37 18h11q46 0 62 -17q5 -5 14 -5q17 0 46 18q49 30 83 30q16 1 28 -5q31 -14 31 -57q0 -13 -3 -28l-10 -51l32 31q30 28 60 28h2q29 0 43 27t59 27 q47 0 47 -9.5t-32 -64.5l-33 -55l45 -41q47 -43 47 -66t-23.5 -47.5t-46 -24.5t-22.5 -8q6 -12 45 -51q31 -29 39 -48.5t8 -66.5q0 -72 -22 -96q-18 -19 -22 -69q-1 -12 -2 -23q0 -34 11 -55q6 -14 1 -19.5t-34 -5.5q-25 0 -43 11.5t-45 43.5q-47 54 -75 54q-7 0 -13 -4 q-10 -4 -10 -23q0 -27 -42 -49q-23 -12 -39 -12q-13 0 -21 8q-19 16 -19 32q0 17 21 33q20 18 4 35q-16 23 -30.5 13.5t-47.5 -68.5q-29 -49 -43 -61.5t-43 -12.5q-41 0 -51 8q-1 1 -1 4q0 15 36 74q45 70 53 94q6 18 4 19.5t-21 -15.5q-25 -23 -50 -23q-12 0 -26 6 q-29 13 -30 39q0 10 4 21q10 33 -10 27q-12 -4 -31 -18q-25 -20 -45 -21q-20 0 -44 23.5t-24 44.5zM373 813q8 -8 22.5 3.5t14.5 27.5q0 18 -15 18q-12 0 -21 -20q-5 -11 -5 -19q0 -6 4 -10zM584 764q0 -20 22 -39q5 -3 10 -3q9 0 15 11q4 10 4 18q0 10 -6 17q-7 13 -21 13 h-6q-18 -3 -18 -17z" />
<glyph unicode="Y" horiz-adv-x="675" d="M61 1212q43 35 76 35q23 0 41 -16q23 -18 191 -23q66 -2 103 -2q28 0 40 1q29 3 35 20q3 21 28 21q7 0 15 -1q25 -2 32 -11t9 -46q4 -53 18 -103q8 -24 8 -46q0 -24 -10 -45q-18 -40 -78 -78q-43 -29 -78.5 -56.5t-54 -47t-14.5 -26.5q10 -10 41 13q29 21 55 21 q27 0 51 -23q23 -20 24 -44t-20 -42q-20 -16 -38 -51t-74 -72q-10 -8 -20.5 -17.5t-17.5 -18.5t-12 -17.5t-8 -12.5q-4 -29 -35 -35q-5 -1 -11 -1q-24 0 -44 20q-19 18 -45 18q-8 0 -16 -2q-35 -4 -45 17q-20 41 -33 63q-16 29 -16 52q0 41 49 65q39 20 39 47q0 8 1 21.5 t1 15.5v1q0 10 -62 42q-39 20 -55 37.5t-27 50.5q-18 51 -18 94q0 41 -34 73q-32 30 -32 52q0 24 41 57zM180 1038q0 -18 58 -24q4 -2 10 -2h11q50 0 124 16q88 18 88 34q0 7 -43 12q-29 3 -61 3q-19 0 -39 -1q-54 -3 -68 -13q-23 -14 -51 -14q-31 0 -29 -11z" />
<glyph unicode="Z" horiz-adv-x="761" d="M24 828q9 26 39 59q31 27 49.5 34t61.5 5q11 -1 20 -1q52 0 52 19q0 12 -27 25q-31 12 -53 30q-14 10 -22.5 8.5t-20.5 -16.5q-18 -25 -51 -18q-23 2 -28 18.5t-7 102.5q-1 24 -1 44q0 79 13 95q11 12 30 12q9 0 19 -2q37 -10 250 -18q188 -5 211 -23q7 -5 7 -16 q0 -27 -42 -90q-47 -71 -47 -100q0 -28 37 -48q41 -20 57 -65q10 -33 21.5 -39t52.5 -6h14q84 0 84 -68q0 -70 -63 -70q-29 0 -45 -28q-12 -27 -41 -58q-23 -29 -27 -79l-4 -54l-260 -4q-47 -1 -86 -1q-155 0 -174 13q-7 6 -7 19q0 20 17 55q10 16 14.5 32.5t2.5 33t-4.5 31 t-7.5 36t-7 37.5q-8 49 -18 58q-12 7 -12 21q0 7 3 16zM264 1118q-4 -12 60 -20q2 -2 4 -2q25 -4 44 -4q50 0 50 26q0 12 -80 12q-76 0 -78 -12zM308 774q-2 -3 -2 -6q0 -5 4 -11q7 -9 18.5 -9t18.5 9q4 6 4 11q0 3 -1 6q-4 8 -22 8q-16 0 -20 -8z" />
<glyph unicode="[" d="M20 -142.5q0 13.5 1024 13.5t1024 -13.5t-1024 -13.5t-1024 13.5zM596 1206q0 68 80 117q35 23 44 38t13 58q2 39 9.5 55.5t27.5 26.5q41 23 126 14.5t126 -36.5q43 -33 39 -62q-2 -18 -22.5 -23t-100.5 -10q-72 -4 -96.5 -9t-24.5 -17q0 -37 172 -39q162 -2 158 -66 q-2 -20 -25 -45q-20 -25 -110 -24q-88 0 -140 12q-49 12 -55 0q-10 -14 47.5 -118.5t120.5 -190.5q57 -78 68.5 -103.5t7.5 -66.5l-2 -62h-322l-8 207q-4 160 -17.5 214t-43.5 54q-27 0 -49.5 25t-22.5 51zM813 805q2 -51 9 -61.5t40 -12.5q46 -6 58 6q6 8 -16.5 42 t-49.5 64.5t-31 30.5q-14 0 -10 -69z" />
<glyph unicode="]" d="M20 -142.5q0 13.5 1024 13.5t1024 -13.5t-1024 -13.5t-1024 13.5z" />
<glyph unicode="a" horiz-adv-x="780" d="M20 686l29 82q21 56 21 93q0 44 -29 61q-14 8 -14 49q0 16 3 25.5t11 15.5t25 12q37 15 55 27q13 8 110 7q57 0 143 -2q232 -7 251 -22q20 -16 19.5 -36t-19.5 -42q-13 -13 -13 -35t13 -79q20 -96 24 -154q0 -31 3 -42t10.5 -15t29.5 -6q43 -6 58 -25q11 -12 11 -28 q1 -12 -5 -26q-12 -34 -43 -46q-39 -16 -60 -27q-22 -12 -58 -12h-11q-44 2 -58 14q-7 7 -21 7q-16 0 -42 -9q-23 -6 -66 -8q-17 -1 -34 -1q-25 0 -48 2q-39 3 -88 7t-65 4l-62 4v70q-2 47 -9 65.5t-32 38.5zM252 570q6 -5 15 -8t22.5 -5t29.5 -2q37 0 40.5 13.5t-31.5 25.5 q-32 12 -52 12t-30 -12q-1 -5 -1 -10q0 -8 7 -14zM362 742.5q0 -13.5 13.5 -13.5t13.5 13.5t-13.5 13.5t-13.5 -13.5zM483 707q0 -2 2 -5q5 -15 13 -15q3 0 6 1l6 10q0 10 -16 15h-4q-6 0 -7 -6z" />
<glyph unicode="b" horiz-adv-x="921" d="M20 866q0 52 38 60q7 2 14 1q35 0 88 -32q46 -27 60 -27q3 0 5 2q11 8 11 126v5q0 113 -21 129q-20 14 -20 49v9q3 42 28 78q27 37 61.5 37t43.5 -39q8 -33 90 -74q76 -37 131 -82q47 -45 61 -45q35 0 97.5 -70.5t62.5 -109.5q0 -8 17.5 -25.5t41.5 -34.5 q49 -35 61.5 -57.5t12.5 -79.5q0 -47 -29.5 -83t-70.5 -36q-33 0 -47 -32q-8 -27 -38 -34t-50 13q-5 5 -16 5q-17 0 -50 -11q-52 -20 -104 -20t-103 20q-39 16 -49 16t-22 -16q-13 -20 -38 -20q-6 0 -12 1q-25 4 -29.5 19.5t-6.5 89.5q-4 72 -9.5 91.5t-31.5 35.5 q-76 45 -112 69.5t-50.5 40t-14.5 31.5zM337 1053q5 -4 11 -4q8 0 14.5 7t2 13t-16.5 6q-10 0 -14 -4q-3 -3 -3 -7q0 -6 6 -11zM344 681q0 -16 29 -44q41 -39 103 -53q23 -5 41 -5q32 0 52 15q12 10 12.5 15t-16.5 14q-24 14 -67 53q-43 37 -51 37h-1q-2 -2 -53 -8 q-49 -4 -49 -24zM440 852q-1 -7 -1 -12q0 -14 7 -21q18 -18 25 12q4 23 -6 33q-18 18 -25 -12zM580 799q10 -31 53 -31q25 0 27 4t-17 23q-16 18 -16 57q0 14 2 31q4 25 4 42t-2 17q-6 0 -37 -59q-18 -37 -18 -64q1 -11 4 -20zM666 1144q-2 8 -3 15q0 20 17 35q15 15 48 15 q7 0 15 -1q45 -4 82 -28q49 -33 48 -66q0 -20 -17 -39q-22 -24 -56 -24q-4 1 -10 1q-40 4 -81 35q-35 27 -43 57z" />
<glyph unicode="c" horiz-adv-x="727" d="M22 931q10 38 54 38q27 0 78 59q51 57 92 76q35 12 38 21.5t-18 35.5q-20 26 -20 49q0 21 18 39q10 10 52 10q18 0 43 -2q81 -6 151 -26q98 -31 158 -110q41 -54 40 -104q0 -23 -8 -44q-25 -67 -75 -95q-27 -15 -53 -15q-22 0 -44 11q-27 14 -34 0q-6 -10 34 -32 q39 -20 60 -60q20 -41 43 -41t47 -22.5t24 -44.5q0 -25 -32 -47q-33 -18 -37 -58l-4 -34l-148 -5q-30 -1 -56 -1q-81 -1 -129 9q-62 12 -112 52q-43 31 -73 31q-27 0 -52.5 22.5t-25.5 44.5q0 23 33 51q24 23 24 48q0 33 -41 71q-29 28 -29 58q0 7 2 15zM201 759 q2 -7 7 -10.5t11 -5t10 4.5q4 4 0 14t-13 13t-15 -5q-1 -2 -1 -4.5t1 -6.5zM227 983q-4 -7 -4 -13q1 -6 5 -14q8 -14 20 -8q12 11 12 29q0 16 -12 18h-3q-10 0 -18 -12zM385 868q8 -20 25.5 -15t21.5 28q4 25 -8 37q-5 3 -10 3q-4 1 -10 -3q-10 -6 -17 -22q-4 -9 -4 -17 q0 -6 2 -11zM418 676q12 0 37 16q16 11 16 19q1 3 -5 7q-3 2 -8 3q-13 0 -30 -21q-16 -16 -16 -21q0 -3 5 -3h1z" />
<glyph unicode="d" horiz-adv-x="827" d="M20 805q0 35 68 100q49 49 56.5 63.5t-5.5 53.5q-7 23 -7 42q0 36 26 56q15 12 32 13q25 0 52 -29q16 -20 26.5 -20.5t46.5 20.5q50 27 76 27l1 -1q26 0 87 60q43 43 77 56.5t46 -9.5q16 -27 29 8q6 18 6 43q0 48 8 60q5 8 24 8q9 0 21 -2q23 -2 29 -15.5t8 -74.5 q2 -82 18 -119q16 -31 0 -55q-16 -25 -16 -99q0 -47 7 -63.5t34 -36.5q33 -23 38 -45q1 -5 1 -9q0 -18 -14 -42q-18 -25 0 -43q17 -17 17 -42q0 -43 -52 -108q-32 -41 -48 -50q-11 -6 -27 -6q-7 0 -15 1q-31 8 -66 8h-14q-115 -4 -177 -4q-31 0 -49 1q-54 3 -73 19 q-25 23 -45 23t-67.5 36t-61.5 64q-16 35 -33 35q-20 0 -42 25.5t-22 50.5zM274 776q0 -18 13.5 -27t27.5 -1q18 12 -10 36q-27 20 -31 -8zM334 1004q-1 -3 -2 -7q0 -15 18 -43q22 -36 35 -39q9 0 9 11q0 16 -19 53q-20 43 -29 41q-6 0 -12 -16zM451 780q6 -18 24 -22 q6 -4 10 0t0 12q-4 16 -22 23q-8 3 -11 -1q-2 -2 -2 -6q0 -3 1 -6zM496 1022q-3 -4 -3 -8q0 -9 17 -13q29 -12 31 3q2 20 -21 30h-3q-12 0 -21 -12zM573 707q4 -4 9 -4q7 0 16 10q14 12 14 18q0 4 -6 4h-4q-17 0 -29 -16q-3 -3 -3 -6t3 -6z" />
<glyph unicode="e" horiz-adv-x="837" d="M23 889q-2 7 -2 15q0 20 15 46q21 36 48 41q27 8 16 35q-6 27 11.5 46.5t44.5 10.5q4 -1 8 -1q25 0 51 34q29 41 49 41q17 0 68 47q48 46 88 46q28 0 53 -23q25 -20 24 -45t-28 -43q-23 -16 -18.5 -32.5t30.5 -16.5q25 0 54 -21q21 -16 51 -16q14 0 30 4q10 1 20 1 q32 0 68 -14q46 -18 66 -51q8 -18 1 -44.5t-26.5 -52.5t-39.5 -34q-29 -10 -31 -23.5t24 -35.5q27 -25 27 -58q0 -31 23 -30q25 0 48 -23.5t23 -46.5q0 -20 -41 -49t-69 -29q-25 0 -37 -35l-15 -34l-178 6q-195 8 -240.5 18t-86.5 51q-31 31 -37 44.5t4 33.5q9 20 9 41 q0 13 -4 26q-9 34 -50 87q-39 51 -51 84zM225 705q-3 -5 -2 -9q0 -9 10 -18q6 -6 16.5 -8t21 -1t19.5 4t13 9t2 12q-4 12 -38 17.5t-42 -6.5zM365 948q0 -14 18 -26.5t29 -3.5q6 10 -2 30q-6 12 -18 18q-7 3 -12 3q-4 0 -7 -2q-8 -4 -8 -19zM444 631q-13 -13 -13 -22 q0 -15 40 -15q39 0 39 10t-25 27q-25 16 -41 0zM539 842q0 -20 8 -26q3 -3 7 -3l9 5q8 9 8 24.5t-8 25.5q-5 6 -9 5l-7 -3q-8 -6 -8 -28z" />
<glyph unicode="f" horiz-adv-x="700" d="M24 1080q15 50 82 50q29 0 44.5 9.5t35.5 44.5q36 53 99 100q41 31 65.5 39t75.5 8q109 0 173.5 -47t82.5 -135q2 -9 2 -18q0 -38 -28 -75q-33 -46 -76 -46q-20 0 -39 12t-30 32.5t-11 45.5q0 31 -15 30q-10 -2 -16 -16q-4 -13 -4 -28q0 -19 7 -40q13 -38 42 -64t59 -26 q29 0 52.5 -25.5t19.5 -51.5q-4 -27 -41 -41q-20 -8 -40 -8q-19 0 -38 6q-25 7 -51 7q-17 0 -35 -3q-14 -2 -26.5 0t-22.5 8t-22 20q-30 32 -44 32q-12 0 -12 -21q0 -18 35 -57.5t53.5 -39.5t59.5 -37q29 -25 38 -26.5t17 14.5q10 19 28 19q21 0 52 -27q33 -29 44 -87 q4 -19 4 -35q0 -31 -15 -48q-20 -25 -25 -47q-2 -20 -40 -23.5t-224 -3.5h-260l-10 105q-4 42 -4 70q0 45 10 55q16 20 48 15t52 -32q41 -41 43 -8q0 25 -49 57q-43 25 -86 62q-35 33 -38 71v6q0 33 26 48q14 8 17 12t-3 12.5t-27 28.5q-39 36 -39 74q0 11 4 23zM131.5 925 q18.5 -7 26.5 1q16 16 -15 26q-30 12 -30 -7q0 -13 18.5 -20zM313 629q0 -27 19 -45q12 -13 25 -13q5 0 10 2q14 9 14 50q0 25 -6 32t-29 7q-12 0 -19.5 -3.5t-10.5 -9.5t-3 -20zM319 1120q5 -4 9 -4q6 0 10 8q1 4 1 9t-1 12q-4 10 -7 10t-9 -10q-7 -9 -7 -16q0 -5 4 -9z " />
<glyph unicode="g" horiz-adv-x="835" d="M31 604q18 35 59 49q43 14 86 52q38 33 38 51q0 2 -1 4q-8 18 -51 26q-66 14 -86 56q-6 14 -6 29q0 28 24 59q25 33 33 112q8 84 16 111q6 18 2 24.5t-18 6.5q-10 0 -21.5 4t-18.5 11t-12 15.5t-5 18.5q0 4 8 11t23.5 16.5t31.5 17.5q42 19 72 19q15 0 28 -5q17 -7 37 -7 t43 7q41 12 86 13q45 0 52 12q8 12 51 24q39 10 102 11q39 0 53.5 -7.5t24.5 -29.5q18 -37 49 -37q51 0 65 -60q3 -15 3 -30q0 -42 -31 -76q-29 -31 -29 -104q0 -47 -7 -70t-27 -47q-30 -37 -30 -62q0 -4 1 -8q2 -9 2 -27q0 -31 -6 -89q-8 -60 -8 -83q0 -12 2 -14 q6 -4 36 23q29 29 51.5 28.5t45.5 -24.5q17 -19 17 -46q0 -12 -3 -26q-8 -45 -34.5 -65.5t-86.5 -28.5q-68 -10 -119 -37q-43 -23 -92 -24q-4 -1 -7 -1q-45 0 -75 17q-90 49 -182 49q-106 0 -161 39q-36 25 -36 56q0 17 11 36zM217 1036q0 -74 20 -74q4 0 9 3l12 12 q12 15 45 15q9 0 21 -1l49 -8l12 82q8 46 8 64v7q-2 15 -20 29q-31 21 -42 21q-7 0 -7 -8q2 -14 20 -35q19 -21 19 -37q0 -12 -13 -21q-12 -8 -26 -8q-23 0 -52 21q-31 23 -43 8.5t-12 -70.5zM508 969q10 -12 41.5 13.5t23.5 39.5q-10 14 -28.5 14t-33.5 -28q-8 -16 -8 -26 q0 -9 5 -13zM546 712q7 -12 19 -12q13 1 13 21q0 16 -10 20q-2 1 -4 1q-8 0 -17 -9q-4 -4 -4 -10q0 -5 3 -11z" />
<glyph unicode="h" horiz-adv-x="905" d="M24 656q-5 12 -5 24q0 27 24 55q20 29 68 51q20 10 28 19.5t11.5 22t3.5 40.5q0 55 -21 74q-18 15 -18 57v9q0 41 -9 110q-3 16 -3 32q0 43 20 83q29 53 35 74q6 22 57 28q22 2 42 2q50 0 86 -14q50 -20 50 -59q0 -25 -28.5 -48.5t-67.5 -31.5q-37 -6 -46 -32 q-3 -9 -3 -18q0 -20 12 -44q10 -18 17.5 -19.5t31.5 10.5q35 18 58 64q23 49 62 49h5q42 -4 146 -66q111 -70 125 -96q16 -30 16 -163v-31q-2 -160 -21 -238q-8 -27 -12 -42t-11 -24.5t-13.5 -12.5t-18.5 -5q-8 -1 -14 -1q-7 0 -11 1q-8 2 -14 10.5t-12 22.5q-12 37 -29 20 q-16 -14 -43.5 -14t-42.5 -16q-23 -20 -41 -4t-18 59q0 64 -31 64q-19 0 -49 -23q-27 -19 -44 -19q-9 0 -15 5q-23 18 -31 -13q-2 -16 -6 -47q-2 -25 -10.5 -34t-28.5 -11h-4q-25 0 -47 22q-24 24 -31 62q-4 27 -35 25q-8 -1 -15 -1q-35 0 -49 32zM248 836q-1 -4 -1 -9 q0 -9 3 -19q4 -16 12 -20q9 -5 14 -5q8 0 7 14q-6 35 -25 51q-8 0 -10 -12zM453 940q-3 -5 -3 -10q0 -6 6 -14q11 -12 29 -13q20 0 62 -20q28 -14 39 -14q3 1 4 1q8 4 -6 37t-70 37q-55 6 -61 -4zM514 1255q0 39 12 53q9 10 23 10q5 0 9 -1q20 -4 60 -25q47 -25 99 -35 q37 -6 56.5 -21t41.5 -52l37 -58q25 -31 33 -94q2 -15 2 -28q0 -41 -19 -62q-22 -26 -46 -26q-12 0 -24 6q-38 20 -50 84q-6 33 -50.5 85t-64.5 52q-18 0 -70 35q-29 20 -39 35t-10 42z" />
<glyph unicode="i" horiz-adv-x="731" d="M22 774q3 16 21 33q27 29 47 29q18 0 35 26q12 29 47 41q29 10 26 24.5t-34 14.5q-10 0 -16.5 4t-11.5 9.5t-9 13.5t-6 15t-5 15.5t-7 14.5q-6 12 -6 36q0 18 3 40q7 56 23 63q14 10 68 10q39 0 53 11.5t26 52.5q6 14 27 18t86 4q109 0 160 -18q41 -14 68 -14q9 0 16 2 q25 8 52.5 -15.5t27.5 -50.5q0 -29 -23.5 -53.5t-53.5 -24.5t-97 25q-43 16 -61 16q-9 0 -13 -4q-10 -8 25.5 -55t51 -47t39 21.5t44 13t20.5 -38.5q0 -47 -70 -84q-29 -14 -36 -64q-10 -55 -52 -94q-38 -45 -38 -64q0 -9 8 -12q14 0 22 12q10 17 29 17q14 -1 36 -11 q48 -24 48 -61q0 -25 35 -55q25 -20 27.5 -34.5t-5.5 -55.5l-10 -60h-561l-4 31q-6 31 12 51q14 18 -4 43q-41 47 -57 160q-4 22 -4 37q0 6 1 12zM159 742q-3 -5 -3 -14q0 -13 8 -34q10 -26 20 -26q13 0 25 51q6 23 3 30t-19 7q-27 0 -34 -14zM205 801.5q0 -19.5 16 -19.5 q14 0 46 29t32 41q0 18 -25 4l-16 -14q-18 -20 -35 -21q-18 0 -18 -19.5zM391 922.5q0 -19.5 13.5 -19.5t13.5 19.5t-13.5 19.5t-13.5 -19.5zM414 541q0 -4 4 -6q7 -4 13 -4q7 0 15 5q14 9 13 27q0 18 -10 18q-6 0 -15 -6q-21 -13 -21 -27q0 -3 1 -7z" />
<glyph unicode="j" horiz-adv-x="692" d="M39 862q-20 16 -20 35q0 21 24 47q19 23 43 23q27 0 61 -27q27 -20 37.5 -21t42.5 15q31 17 60 17q12 0 24 -3q27 -4 38 2t32 39q22 36 22 55q0 9 -5 14q-15 17 -107 21q-76 2 -90.5 7.5t-18.5 31.5q-4 33 17 51q11 8 11 29q0 14 -5 33q-12 31 -3 49.5t66 81.5 q76 86 97 88q14 0 30 -25q12 -27 70 -30l57 -4v-134l-59 -4q-9 -1 -17 -1q-46 0 -67 20q-27 23 -31 16q-12 -12 6.5 -35.5t51.5 -42.5q66 -33 202 -161q39 -37 48 -91q2 -14 2 -27q0 -41 -21 -81q-29 -51 -29 -80q0 -27 -22 -41q-16 -10 -10 -20.5t42 -44.5q47 -41 54 -62 q1 -5 1 -10q0 -18 -20 -41q-20 -20 -50 -22.5t-56 18.5q-29 23 -37 17.5t-14 -46.5q-8 -45 -39 -104q-29 -47 -75 -62q-36 -11 -114 -11q-22 0 -47 1q-68 4 -84 9t-16 22q0 12 6 18t22.5 8t55.5 4q61 4 71.5 8.5t4.5 26.5q-6 18 -21 99q-10 70 -47 116.5t-80 46.5 q-31 0 -50.5 13.5t-27.5 35t-4 50.5q3 14 3 25q0 26 -15 38zM315 781.5q0 -11.5 26 -33.5q20 -16 37 -16q5 0 10 2q19 6 19 27q0 4 -1 9q-4 34 -38 34q-13 0 -30 -5q-23 -6 -23 -17.5z" />
<glyph unicode="k" horiz-adv-x="860" d="M20 879q0 31 25 54t55 23q29 0 61 4.5t53.5 11.5t21.5 13q0 8 -24 21.5t-52.5 27t-32.5 15.5q-31 16 -47 24q-23 10 -29 40t10 52q16 18 62 18q1 -1 3 -1q48 0 71 -21q25 -23 38 -10.5t7 49.5q-4 18 -4 35q0 24 8 45q14 37 48 39h4q31 0 42 -31q18 -48 52 -66 q31 -17 83 -16h12h23q129 0 201 -63q41 -37 63 -43q44 -16 62 -120q7 -37 6 -65q0 -51 -21 -75q-25 -27 -24 -47q0 -23 -26 -42.5t-50 -15.5q-27 8 -49 -26q-18 -27 -13 -41.5t56 -73.5q70 -78 69 -86q-7 -7 -46 -7h-10q-48 1 -108.5 9t-70.5 18q-23 18 -90 19q-72 4 -92 12 q-23 10 -27 -20q-2 -18 -11.5 -24.5t-33.5 -6.5q-27 0 -34 7t-11 40q-6 80 -57 80q-25 0 -45 35q-17 29 -18 61q0 6 1 12q2 27 -3 36t-22 14q-29 6 -57.5 34.5t-28.5 51.5zM345 812q7 -7 21.5 3t14.5 21.5t-11.5 11.5t-21.5 -14q-6 -9 -6 -15q0 -4 3 -7zM346 1001 q14 -18 70 -18q43 0 50 5t1 32q-8 31 -14 47q-6 11 -20 11q-17 0 -46 -17q-44 -26 -44 -49q0 -6 3 -11zM436 727q0 -9 5 -9t16 9q6 6 6 8q0 6 -13.5 6t-13.5 -14zM522 836q-1 -2 -1 -3q1 -7 13 -15q16 -10 34 -15q9 -2 16.5 -2t13.5 2q6 4 6 9q0 8 -14 19q-25 19 -43 19 q-15 0 -25 -14z" />
<glyph unicode="l" horiz-adv-x="653" d="M31 1206q-12 16 -12 32q0 21 22 40q18 17 18 31q1 23 21 36q13 8 27 8q9 0 20 -3q37 -8 147 -19l115 -8l6 -106q8 -96 25.5 -175t34.5 -98q12 -12 18 -9t16 21q7 14 7 30q0 20 -11 42q-27 56 -40 110q-9 37 -9 64q0 12 2 22q6 32 31 33q25 0 33 -34q6 -18 14 -24.5 t28.5 -4.5t36 -6t22.5 -24.5t1 -35.5q-2 -8 -2 -16q0 -24 14 -51q18 -35 18 -69v-8q-2 -38 -32 -93q-33 -61 -33 -98q0 -35 -35.5 -64t-78.5 -29q-33 0 -40 -6t-7 -39v-47l104 -4q78 -2 91 -7t18 -32q2 -23 -4.5 -33t-26.5 -18q-8 -4 -16.5 -9t-13.5 -11.5t-5 -12.5 q-1 -27 -29 -36q-17 -5 -51 -5q-23 0 -53 2q-59 6 -85 13.5t-42 25.5q-12 14 -25.5 20.5t-36 10.5t-61.5 4l-92 4v41q0 23 7 32t24 11q20 4 26 10.5t-2 13.5t-31 13q-61 14 -69 48q-1 5 -1 10q0 29 40 59q41 29 41 47q0 16 26 31q29 16 25 27t-39 11q-37 0 -49 22t16 42 q27 18 49 10q33 -10 40 3.5t-15 37.5q-20 20 -23.5 37.5t5.5 58.5q8 54 8 72q0 7 -1 9q-3 10 -40 8q-8 -1 -15 -1q-46 0 -71 33z" />
<glyph unicode="m" horiz-adv-x="745" d="M20 701q0 39 48 92q31 37 38 56t3 56q-18 135 -52 166q-24 21 -24 45q0 21 20 43q16 16 40 16q6 0 12 -1q32 -5 94 -37q57 -31 108 -37q35 -6 49.5 -3t30.5 19q22 25 42 25q16 0 30 -17q16 -18 65 -25q16 -2 30 -2q28 0 48 9q33 14 55 -6q14 -14 15.5 -25.5t-8.5 -32.5 q-17 -36 -17 -69q0 -45 31 -84l29 -41l-29 -39q-29 -37 -29 -67v-4q2 -32 39 -95q39 -70 39 -111q0 -30 -20 -45q-10 -10 -25 -10q-4 0 -8 1q-21 3 -76 22q-61 20 -86 20q-11 0 -16 -4q-14 -16 -86 -16q-45 0 -60.5 5t-19.5 23q-7 28 -45 28h-7q-44 -3 -59 -36 q-12 -33 -24 -33q-23 0 -52.5 15.5t-29.5 27.5q0 16 -47 76q-46 56 -46 95zM207 924q0 -35 14 -41q12 -10 17.5 -4.5t11.5 36.5q2 35 -21 37q-4 1 -8 1q-6 0 -9 -4q-5 -7 -5 -25zM469 621q7 -7 20 -7q10 0 22 4q30 9 30 25q0 18 -33 19q-27 0 -39 -14q-6 -7 -6 -14t6 -13z " />
<glyph unicode="n" horiz-adv-x="698" d="M20 696q0 29 54 72q37 29 45 45t8 61q0 68 -12 74q-13 9 -13 25q0 13 10 33q22 42 54 43q18 0 64 47t71 47q41 0 12 26l-18 17q-30 25 -30 51q0 21 20 43q21 23 48 23q34 0 79 -37q45 -39 94 -49q37 -6 67.5 -31t71.5 -78q23 -31 27 -72t8 -254v-23q0 -80 -12 -145 q-8 -45 -15.5 -56t-31.5 -15q-37 -2 -52 22q-14 29 -45 29q-18 0 -45.5 13.5t-48 30.5t-20.5 30q0 18 -11.5 19t-48.5 -15q-31 -14 -29.5 -28.5t33.5 -18.5q29 -6 36 -26.5t-13 -41.5q-14 -16 -27.5 -16t-58.5 16q-39 14 -53.5 15t-20.5 -11q-10 -20 -45 -20 q-33 0 -92.5 61.5t-59.5 93.5zM315 895q10 -2 29 8q25 14 25 45q0 14 10 32.5t25.5 30t27.5 11.5q17 0 17 13.5t-25 13.5q-8 0 -18.5 -4.5t-18.5 -10.5t-13 -14t-5 -14q0 -14 -33 -54q-28 -31 -28 -46q0 -8 7 -11zM510 901q-2 -4 -2 -7q0 -5 6 -5q14 0 14 13t-4 13 q-8 0 -14 -14z" />
<glyph unicode="o" horiz-adv-x="655" d="M20 807l3 145l75 78q57 59 69.5 88t-13.5 51q-23 18 -20 43t28 43q29 21 45 21h1q16 0 46 -21q37 -25 52.5 -48t15.5 -58q0 -27 8 -37t43 -20q44 -13 77 -13q41 0 68 19q24 16 43 16q17 0 31 -13q29 -28 41 -120q5 -26 5 -43q0 -10 -2 -16q-5 -16 -32 -35 q-29 -20 -35 -43t-12 -105q-2 -35 -2 -61q-1 -58 9 -68q14 -14 -3 -43q-16 -29 -51 -22q-7 2 -16 2q-32 0 -88 -23q-47 -18 -77 -21q-8 -1 -20 -1q-31 0 -86 6l-110 12l-29 60q-29 59 -45 69q-19 10 -19 144v14zM158 817q28 8 28 33q0 29 -14 31t-33 -27q-15 -27 -15 -36 q0 -10 34 -1zM262 728q16 -11 22 -11q3 0 5 2q10 14 -19 39q-30 24 -30 0q0 -14 22 -30zM418 936v-3q0 -5 4 -13q0 -2 3 -15.5t6 -26t7 -25.5t9.5 -22.5t9.5 -9.5t7 5t3 14.5t-1 19.5t-5 23.5t-8 25.5q-14 31 -31 33h-1q-3 0 -3 -6z" />
<glyph unicode="p" horiz-adv-x="802" d="M20 848q0 25 31 49.5t74 30.5q20 4 28.5 5t14.5 11t7 20.5t3 39.5q1 11 1 22q0 48 -15 82q-13 26 -13 70v17q3 56 21 79q10 12 39 12q12 0 29 -2q41 -6 64.5 -7t50 0t77.5 7q84 11 92 21q6 11 19 11q30 0 100 -63q68 -61 107 -88q23 -16 28.5 -33.5t5.5 -80.5 q0 -90 -20 -117q-20 -26 -20 -89q0 -68 20 -93q14 -14 15 -22.5t-11 -22.5q-18 -25 -32 -71q-12 -36 -12 -57q0 -5 1 -10q2 -7 2 -14q0 -22 -16 -51q-14 -31 -29 -36q-12 -4 -51 -4q-16 0 -37 1q-78 2 -96.5 15.5t-53.5 92.5q-8 14 -22 -8q-16 -25 -34 -25q-16 0 -34 21 q-18 23 -31.5 15.5t-33.5 -56.5q-23 -45 -33 -52q-8 -5 -34 -5h-17l-58 4l-8 68q-3 18 -3 33q0 43 20 69q24 35 24 55v6q-4 21 -41 41q-51 29 -85 58.5t-34 50.5zM276 973q6 -23 45 -29q11 -2 23 -2q27 0 54 10q38 15 38 39q0 18 -30 13q-34 -10 -50 10q-20 24 -40 24 q-9 0 -18 -4q-24 -13 -24 -43q0 -8 2 -18zM410 1182.5q0 -13.5 39.5 -13.5t39.5 13.5t-39.5 13.5t-39.5 -13.5zM563 688q8 -14 21 -14q3 0 8 1q18 5 18 25q0 29 -20 29q-16 0 -26 -13q-5 -8 -5 -15t4 -13zM569 956q0 -14 9 -14q12 0 34.5 33t24.5 51q0 24 -11 24 q-9 0 -26 -18l-8 -6q-24 -27 -24 -60q0 -5 1 -10z" />
<glyph unicode="q" horiz-adv-x="849" d="M20 1022q0 23 11 84q27 158 102 158q31 0 84 32q57 37 130 37q45 0 95 -14q27 -8 37.5 -6t14.5 14q8 25 28.5 47.5t43 22.5t43 -23.5t26.5 -54.5q2 -20 18.5 -31.5t65.5 -30.5q82 -29 98 -38q15 -9 15 -29v-7q-3 -26 -25 -46q-23 -20 -65 -20q-35 0 -83 13q-12 4 -17 -5 t-7 -33q-4 -29 3 -43.5t34 -34.5q39 -31 39 -58.5t-39 -56.5q-37 -27 -37 -63q0 -20 12 -43q7 -12 7 -27q0 -17 -9 -39q-16 -41 -4 -53t55 4q22 8 39 8q15 0 27 -6q24 -12 29 -49q2 -20 -6.5 -33.5t-34.5 -30.5q-41 -26 -72 -26h-2q-31 0 -43 -35q-8 -20 -19 -26 q-6 -5 -17 -5q-7 0 -15 2q-37 2 -41 37q-6 47 -13.5 55.5t-31.5 -6.5q-35 -23 -102 -29q-17 -2 -32 -2q-42 0 -65 13q-31 16 -37 49t19 49q25 18 73 19q27 0 53.5 11t41 26.5t6.5 25.5q-8 14 -58.5 7t-72.5 -27q-20 -18 -46 -13.5t-38 31.5q-12 29 -61.5 70t-72.5 96 q-23 53 -35 53t-34 33q-15 24 -15 47zM176 1104q0 -35 24.5 -38t51.5 28q30 36 76 36h2q29 0 47 -12t55 -51l55 -63l-6 45q-2 15 -2 29q0 32 10 57q6 20 6 31q0 4 -1 7q-3 11 -23 27q-26 22 -38 22h-1q-12 -1 -35 -26q-27 -29 -55 -22q-31 4 -53 -19q-23 -25 -68 -25 q-27 0 -36 -6t-9 -20zM197 909q-1 -1 -1 -3q0 -4 3 -9q8 -23 24 -20q10 0 4 14q-4 16 -24 20q-6 2 -6 -2zM328 948v-7q0 -11 4 -28q18 -92 53 -92q25 0 25 20.5t-25 61.5q-35 54 -49 54q-6 0 -8 -9z" />
<glyph unicode="r" horiz-adv-x="679" d="M20 893q0 59 6.5 82.5t22.5 42.5q29 31 53 31q33 0 33 16q0 20 -53 65q-61 57 -62 78q0 42 48 62q18 8 32 7q24 0 39 -20q16 -18 85 -22q33 -4 50 -9t31 -17.5t37 -37.5q50 -57 80 -57h4q25 4 -10 51q-18 23 -19 58t15 51q14 16 34 16q8 0 17 -2q31 -10 82 -53 q65 -54 65 -85q0 -32 27 -46q25 -15 25 -41q0 -21 -21 -41q-12 -14 -13 -29.5t9 -50.5q9 -34 9 -53q0 -11 -3 -19q-8 -18 -53 -26q-27 -6 -55.5 2t-88.5 37q-57 31 -81.5 37t-40.5 -2q-33 -14 -56 -19q-27 -4 -32 -33.5t22 -38.5q94 -31 145 -75q27 -23 37.5 -26t22.5 9 q20 27 53 18.5t66 -48.5q37 -43 39 -54.5t-17 -38.5q-14 -18 -21.5 -17t-31.5 26q-16 14 -23.5 18t-11.5 2t-8 -12q-8 -25 0 -41q6 -20 -7.5 -54t-31.5 -40q-4 -2 -11 -2q-22 0 -69 20q-39 20 -48 32.5t-9 43.5v6q0 36 -20 64q-22 30 -52 30q-14 0 -20.5 -15.5t-8.5 -68.5 q-2 -61 -7.5 -72.5t-35.5 -11.5t-36.5 12.5t-10.5 81.5q-4 61 -11 80t-30 31q-14 6 -24 13t-18.5 15.5t-14.5 18.5t-10 21.5t-7 27t-4.5 32.5t-1.5 40z" />
<glyph unicode="s" horiz-adv-x="845" d="M20 987q0 53 6.5 73.5t24.5 39.5q25 23 46.5 35t47 17t62.5 5q45 0 59.5 6t28.5 33q27 53 78 53q14 0 30 -4q25 -8 48.5 -44t23.5 -68q0 -20 15.5 -39t33.5 -19q16 8 0 57.5t-22 57.5q-13 13 -13 29q0 21 23 47q21 25 49 25q21 0 45 -14q58 -32 58 -97q0 -27 6 -39.5 t26 -22.5q37 -16 49 -49q10 -23 8.5 -34t-20.5 -27q-18 -20 -30.5 -22.5t-38.5 9.5q-41 18 -48.5 9t19.5 -43q29 -35 29 -93q0 -57 20 -73q18 -16 18 -41t15 -25q10 0 59 -43q45 -39 49 -84v-8q0 -38 -34 -55q-23 -10 -36.5 -6t-43.5 34q-34 33 -54 33q-3 0 -5 -1 q-20 -5 -46 -56q-12 -27 -33.5 -31t-130.5 -4q-131 0 -190 22.5t-90 83.5q-16 35 -16.5 46.5t16.5 29.5q18 18 17 27.5t-21 38.5q-31 39 -31 65q0 27 -27 27q-80 0 -80 139zM264 635q0 -5 10 -14q27 -15 70 -21q14 -2 24 -2q23 0 31 8q15 14 -10 41q-23 25 -52.5 27 t-55.5 -19q-17 -15 -17 -20zM291 920q-2 -4 -2 -9q0 -6 3 -13q5 -13 19 -28q25 -20 55.5 -21t36.5 19q2 6 2 12q0 19 -18 48q-10 18 -17.5 27.5t-13.5 11.5q-2 1 -4 1q-4 0 -6 -3q-4 -4 -10 -17q-6 -18 -27 -18q-14 0 -18 -10zM489 750q0 -14 31 -56q28 -39 36 -39h1 q12 8 12 27q0 4 -1 8q-3 25 -23 43q-26 24 -44 24q-4 0 -7 -1z" />
<glyph unicode="t" horiz-adv-x="868" d="M22 1158q8 30 39 54q43 33 60 76q12 27 23.5 35t35.5 8q41 0 41 23q-1 29 11 37q8 5 24 5q8 0 18 -1q25 -2 30 -14.5t9 -65.5q2 -76 19 -76q10 2 22 18q14 16 40 18.5t34 -11.5q12 -16 44 -12.5t50 26.5q23 23 56.5 21.5t50.5 -25.5q12 -20 -17 -55q-29 -31 -28 -45 q0 -18 -37 -58.5t-53 -40.5q-8 0 -12.5 -4t-2.5 -10q6 -20 38 -21.5t52 17.5q27 23 47.5 13.5t16.5 -44.5q-4 -37 -45 -63q-41 -25 -45 -35q0 -8 41 -25q37 -18 67 -63q27 -43 76 -66q75 -31 107 -81q16 -25 16 -46t-16 -37t-39 -16q-34 0 -84 35q-44 30 -80 30 q-37 0 -66 -32q-18 -23 -40.5 -30t-75.5 -11q-25 -2 -46 -2q-54 0 -92 14q-29 13 -53 13q-17 0 -31 -7q-23 -8 -33 -6t-28 18q-18 20 -19.5 30.5t15.5 39.5q14 31 14 43t-14 33q-20 33 -19.5 58.5t27.5 68.5q29 47 14 51q-35 10 -71.5 44t-46.5 63q-10 41 -29 59 q-17 17 -17 37q0 7 2 15zM322 836q-2 -6 19 -25.5t49 -37t38 -17.5q8 0 8 15t-4 35t-12 28q-14 12 -51 14h-9q-29 0 -38 -12zM470 716q-3 -6 -3 -10q0 -6 6 -10q4 -3 9 -3q4 1 10 5q10 8 10 19q0 12 -13 12q-12 1 -19 -13z" />
<glyph unicode="u" horiz-adv-x="731" d="M20 1124q0 29 24 46.5t79 27.5q61 12 90 37q29 27 87 67.5t81 40.5q29 0 68.5 -29.5t39.5 -49.5q0 -27 17.5 -27t62.5 -34t76 -34q29 0 39 -14t12 -225q2 -205 15 -232q4 -6 4 -15q0 -5 -2 -13q-4 -18 -8.5 -29.5t-11.5 -27t-9 -21.5q-6 -25 -47 -25q-14 0 -25.5 -3 t-17.5 -7t-14.5 -8t-18.5 -5h-8q-9 0 -23 1q-190 31 -217 43q-23 6 -32 -6q-12 -23 -40 -11.5t-57 52.5q-41 59 -59 90q-23 35 -23 58.5t25 53.5q8 10 13 21.5t8.5 27t4.5 36t1 51.5v102h-50q-84 0 -84 61zM249 1067q-1 -10 -1 -20q0 -15 2 -29q4 -26 12 -29q25 -16 25 19 q-2 12 -6 32q-8 49 -21 50q-8 0 -11 -23zM344 1143q-3 -8 -3 -15q0 -25 34 -34q6 0 12 -2q37 -4 45 -31q6 -25 15.5 -24t25.5 28q10 16 10 29.5t-14 44.5q-12 27 -24.5 36t-34.5 9q-53 0 -66 -41zM477 711q2 -10 21 -19q5 -2 11 -2q15 0 32 17q12 12 12 16q0 1 -1 2 q-3 4 -34 4q-41 0 -41 -18z" />
<glyph unicode="v" horiz-adv-x="800" d="M20 1016q2 16 7.5 26.5t14.5 16.5t28 12q47 14 59 43q6 18 16.5 23.5t36.5 3.5q31 -4 37 2t2 37q-1 7 -1 13q0 43 24 63q26 22 96 22q75 0 100 27q23 25 47 25q14 0 28 -9q38 -23 38 -84q0 -35 6 -41t29 -2q20 4 40.5 -6t33 -29.5t12.5 -44.5q0 -35 53 -78q47 -38 54 -70 q1 -6 1 -10q0 -25 -28 -43q-14 -7 -30 -7t-32 7q-33 16 -39 17q-2 0 -39 -62l-36 -63l34 -35q27 -27 34 -64.5t-11 -50.5q-14 -8 -14 -43q0 -43 -33 -41q-41 2 -62 60q-6 16 -12 23.5t-14 4t-18.5 -16.5t-24.5 -38q-29 -55 -59 -61q-4 -1 -7 -1q-25 0 -45 38 q-18 37 -31.5 40t-27.5 -26q-14 -25 -42 -25t-40 25q0 4 -4 11t-8.5 14.5t-9.5 17.5t-9 19.5t-8 20.5t-6 19.5t-3 17.5t3 15q8 29 -21 47q-25 18 -26.5 47t20.5 54q23 25 13.5 45t-44.5 20q-42 0 -64 20q-18 16 -19 43q0 6 1 11zM256 914q6 -8 13 -12.5t17.5 -8.5t20.5 -4 q31 0 49 -37q16 -35 56 -49q18 -6 29 -6q4 0 7 1q11 3 27 23q25 31 23 40t-33 7q-23 0 -32 7.5t-11 27.5q-5 31 -25 58q-25 23 -37 20q-16 0 -58 -16.5t-50 -24.5q-3 -5 -3 -10q0 -7 7 -16zM504 1079q6 -35 18 -41q6 0 9.5 2t4.5 9.5t2 19t1 27.5q-4 61 -19 61 q-8 -4 -14 -18q-5 -14 -5 -32q0 -13 3 -28z" />
<glyph unicode="w" horiz-adv-x="882" d="M20 1057q0 35 27 45t113 12q106 0 151 -27q41 -23 54.5 -23t21.5 19q6 20 -16 29q-27 10 -48.5 30.5t-21.5 37.5q0 24 23 47q20 23 61 23h2q43 0 74 -23q33 -23 118 -24q57 0 136 11q48 7 68 7q5 -1 7 -1q18 -2 39 -24q35 -32 35 -62q0 -10 -4 -21q-14 -35 -64 -35 q-8 0 -16 1l-43 4l-4 -82q-1 -13 -1 -25q0 -60 18 -73q18 -16 18.5 -54t-14.5 -52q-18 -14 -43 -68q-14 -31 -14 -52q0 -42 57 -42q46 0 72 -40q12 -18 12 -33q0 -18 -17 -32q-16 -12 -80 -34q-43 -16 -65 -18h-4q-23 0 -78 16q-72 18 -101.5 40.5t-29.5 55.5q0 47 -31 14 l-26 -37q-31 -45 -53.5 -50t-45.5 30t-47 26q-14 -4 -46 10.5t-59.5 35t-27.5 32.5q0 18 31 47q20 20 24 42q2 9 2 27q0 28 -4 77l-6 117l-59 18q-53 16 -74 32.5t-21 45.5zM274 850q0 -43 25 -51q23 -6 51 -43q18 -20 28 -24q3 -1 5 -1q7 0 14 6q10 10 3 26.5t-40 53.5 q-57 67 -75 67q-5 0 -6 -5q-4 -8 -5 -29zM526 778q-2 -14 -2 -22q0 -12 4 -13h2q9 0 33 25q25 27 51 27q14 0 16.5 4t-7.5 16q-18 22 -39 22q-10 1 -18 -3q-32 -12 -40 -56zM543 1004q0 -6 40 -18q27 -8 39 -9q6 0 7 2q8 10 8 45q0 39 -12 43h-2q-9 -1 -42 -25 q-38 -28 -38 -38z" />
<glyph unicode="x" horiz-adv-x="894" d="M20 1073q0 6 26 40t57.5 70t61.5 65.5t38 29.5q10 0 39 -18q18 -13 18 -47q0 -12 -2 -27q-8 -39 -4 -48.5t33 -15.5q14 -2 27 -2q24 0 40 8q25 15 55 15q38 0 87 -23q31 -14 47 -15t43 9q45 15 77 15h10q34 -3 40 -25q6 -27 14 -26t33 32q25 30 51 30q21 0 43 -20 q18 -18 22 -70q1 -11 1 -19q0 -34 -13 -42q-14 -8 -14 -110t-23 -127q-16 -18 -41.5 -22.5t-35.5 11.5q-6 12 -58 13q-57 0 -92 8q-39 8 -43 -3t27 -50q18 -25 27.5 -27t23.5 12q25 20 45 21q23 0 43 -36t20 -75q-1 -58 -35 -72q-30 -13 -133 -12h-30q-78 0 -106.5 2 t-43 8.5t-26.5 24.5l-25 33l-22 -29q-20 -31 -66 -31q-45 0 -50 11.5t21 48.5q35 41 35 57q0 6 -23.5 25.5t-54.5 40.5q-62 43 -76 73q-4 9 -4 17q0 21 23 41q18 16 30.5 18t43.5 -8q39 -15 60 -15h7q22 3 43 29l31 33l-33 35q-31 33 -50 33q-11 0 -17 -11q-12 -20 -39 -12 t-41 39q-14 25 -24.5 31t-31.5 0q-27 -6 -56.5 13t-29.5 46zM397 986q0 -9 13 -32q8 -16 18 -22t15 1t3 25q-4 31 -26 35q-7 1 -11 1q-12 0 -12 -8zM442 713q-3 -4 -3 -9q0 -11 16 -26q13 -15 16.5 -15t3.5 21q0 39 -20 39q-6 0 -13 -10zM663 906q9 -32 33 -32q21 1 21 48 q1 41 -11 51q-3 3 -8 3q-10 0 -26 -18q-12 -13 -12 -32q0 -9 3 -20z" />
<glyph unicode="y" horiz-adv-x="827" d="M36 1250q3 12 32 40q35 39 67 39h3q34 -2 40 -41q4 -35 13.5 -37t23.5 29q6 18 20.5 24.5t49.5 8.5q57 0 71 14q18 18 37 18q13 0 26 -7q28 -16 28 -45q0 -6 -1 -13q-4 -14 5.5 -17t23.5 -4.5t21 -9.5q20 -31 30 6l4 25q2 20 6.5 28.5t12.5 11.5t26 3q27 0 34 -6t12 -33 q4 -41 36 -76q23 -23 27 -40q2 -7 2 -19q0 -18 -4 -49q-4 -34 -4 -52q0 -9 1 -14q3 -14 17 -20q25 -8 70 -41q29 -20 36 -36.5t7 -59.5q0 -61 -28.5 -108.5t-67.5 -51.5q-14 -2 -22.5 -5t-11.5 -10.5t-3 -19.5q0 -18 -9.5 -32.5t-24.5 -21.5t-36 -3q-25 2 -26.5 -6.5 t8.5 -53.5q2 -8 2 -16q0 -27 -21 -49q-29 -27 -45 -21t-37 47q-27 57 -59 66q-5 1 -9 1q-25 0 -44 -38q-20 -39 -63 -61q-35 -18 -74 -18q-8 0 -15 1q-35 2 -43 9.5t-10 37.5q-4 37 -22.5 49.5t-41.5 -6.5q-12 -10 -20 -10q-27 0 -29 90q0 45 5.5 62.5t24.5 32t23.5 29.5 t0.5 56q-8 63 -50 121q-43 59 -43 109q0 37 23 69q14 20 14 34t-10 44q-10 26 -10 40q0 3 1 6zM256 811q-2 -2 -2 -5q0 -11 20 -30q27 -26 37 -16q10 8 -22 41q-25 23 -33 10zM343 1088q9 -31 38 -50q37 -29 45 -28q6 0 27.5 37.5t21.5 46.5q0 5 -53 28q-47 18 -56 20h-2 q-7 0 -14 -7q-10 -10 -10 -27q0 -9 3 -20zM455 719q4 -18 34 -19q29 0 23 31q-6 43 -35 29q-23 -11 -23 -31q0 -5 1 -10zM516 969q0 -18 21 0q6 6 6 8q0 6 -13.5 6t-13.5 -14zM647 809q10 0 19.5 18.5t9.5 36.5q0 10 -12 12h-2q-10 0 -17 -10q-9 -9 -9 -29q0 -28 11 -28z " />
<glyph unicode="z" horiz-adv-x="827" d="M21 781q2 50 20 75q18 27 18 61.5t31 71.5q16 23 19.5 35t-7.5 27q-16 25 -16 49q0 17 8 34q19 40 74 56q28 9 59 29q27 19 56 19q43 0 92 -42q35 -33 47 -35t53 15q35 14 80 14q15 0 31 -2q64 -6 92 -35q25 -25 25 -53q1 -17 -9 -36q-20 -37 -59 -37q-11 0 -25 3 q-41 8 -41 -12q0 -18 19 -35q20 -16 20 -38q0 -19 -16 -42q-16 -27 0 -43t16 -58t-16 -59q-15 -15 -33 -15q-28 0 -61 42q-33 41 -47 33q-16 -10 -15.5 -28.5t19.5 -33.5q20 -16 20 -47q0 -33 13.5 -39t27.5 19q14 26 36 26q23 0 54 -28q10 -10 18.5 -15.5t20.5 -9.5 t26.5 -4h37.5q13 1 23 1q42 0 58 -12q17 -13 18 -47q0 -7 -1 -14q-7 -65 -103 -65q-18 0 -40 2q-74 6 -93 22q-20 18 -249 25l-228 6l-4 35q-6 31 16 51q23 18 20 28.5t-36 18.5q-41 10 -53 23q-16 13 -16 54v10zM252 925q10 -36 51 -36q31 1 40 23q4 9 4 20q0 18 -9 43 q-16 49 -32 55q-2 1 -5 1q-14 0 -33 -27q-19 -31 -19 -58q0 -11 3 -21z" />
<glyph unicode="{" horiz-adv-x="759" d="M20 872q0 16 12.5 33t31 27t36.5 10q31 0 103 -45q70 -45 78 -39q12 12 7 55t-18 56q-23 16 -77 24q-37 6 -47.5 14.5t-10.5 29t10.5 27.5t47.5 15q57 10 71.5 23.5t-6.5 38.5q-27 29 -22.5 68.5t32.5 68.5q20 16 26.5 35.5t6.5 56.5q0 193 201 184q43 -2 52 -8t9 -28 q0 -23 -10 -30t-48 -11t-55.5 -13.5t-24.5 -27t-11 -56.5q-6 -41 -1 -53t31 -27q190 -104 228 -104q45 0 63.5 -49t-14.5 -86q-43 -51 -131 8q-27 18 -62.5 38.5t-64.5 35t-37 14.5q-4 0 -6 -28.5t-3 -74.5t-2 -102.5t1 -113t3 -103.5t4 -78.5t7 -35.5q14 -14 74 -23 q39 -8 49 -15.5t10 -27.5q0 -31 -27.5 -38t-97.5 3q-113 16 -131 127q-4 25 -9 37t-15.5 20.5t-28.5 16.5q-41 16 -96 53q-51 35 -70 35q-18 0 -43 22.5t-25 40.5zM485 752q-10 47 3 115.5t36 84.5t33 15.5t33 -17.5q16 -12 21 -37.5t7 -105.5q0 -70 -4 -102.5t-15 -45 t-38 -12.5t-47 27.5t-29 77.5z" />
<glyph unicode="|" d="M20 -142.5q0 13.5 1024 13.5t1024 -13.5t-1024 -13.5t-1024 13.5z" />
<glyph unicode="}" horiz-adv-x="770" d="M22 1500.5q-1 11.5 3 23.5q8 18 63 19t107 -15q45 -16 73 -74q25 -53 82 -94q53 -41 76 -94q18 -45 65.5 -81t104.5 -48q39 -8 85 -40t62 -63q14 -27 -8 -59q-37 -59 -104 -6q-31 29 -96 45q-41 14 -52.5 13t-21.5 -17q-12 -23 -68 -31q-47 -6 -68.5 -23.5t-29.5 -56.5 q-4 -12 -4 -19.5t4 -13.5t12 -11t27 -11q47 -20 47 -53q0 -53 -59 -66q-16 -2 -23.5 -16.5t-13.5 -51.5q-6 -59 -29 -96q-18 -29 -71.5 -46t-108.5 -11q-16 2 -25.5 3t-15.5 5t-7 10t-1 19q0 23 10 30t49 11q37 6 57.5 18t28.5 38t8 71q0 72 -33 110q-74 88 -73 203 q0 41 7 62.5t32 50.5q84 96 22.5 154.5t-0.5 115.5q25 23 26 29t-20 16q-27 14 -67 14q-16 0 -27.5 4.5t-17.5 12.5t-7 19.5zM208 1011.5q5 -16.5 23 -12.5q8 2 15.5 8.5t7.5 14.5q0 14 -13.5 21.5t-23.5 -3.5q-14 -12 -9 -28.5zM293 1153q6 -27 15 -42t23.5 -25.5 t41.5 -16.5q31 -8 35 5t-27 30q-27 14 -47 53q-27 51 -39 37q-8 -8 -2 -41zM504 878.5q2 20.5 18 36.5q37 41 75 15.5t38 -92.5q0 -43 16 -105q12 -53 -1 -75.5t-58 -22.5q-23 0 -39 17.5t-27.5 54t-17.5 98.5q-6 53 -4 73.5z" />
<glyph unicode="~" horiz-adv-x="663" d="M20 1034q1 39 11 45q12 14 49 8t55 -24q14 -16 44 -21.5t114 -7.5l135 -4l8 -41q4 -25 14.5 -34t43.5 -15q39 -4 89 -45t62 -78q6 -20 -15.5 -48t-45.5 -28q-23 0 -56 33q-20 23 -41.5 29t-85.5 6q-111 0 -179 25.5t-130 89.5q-72 72 -72 110z" />
<glyph unicode="&#xa2;" d="M20 -142.5q0 13.5 1024 13.5t1024 -13.5t-1024 -13.5t-1024 13.5z" />
<glyph unicode="&#xa3;" horiz-adv-x="821" d="M21 983q2 23 28 104q33 106 72 154q27 29 38 33t36 -8q35 -14 34 -54q0 -35 -10 -49q-12 -14 -43 -98q-18 -51 -21 -73.5t5 -43.5q14 -31 28.5 -30.5t14.5 30.5q0 35 28 47q23 8 27 23.5t0 81.5q-4 102 32 158t126 85q37 10 72.5 9.5t68.5 -12t60.5 -34t50.5 -57.5 q66 -96 -9 -112q-39 -8 -63 -35q-41 -45 -88 -2q-45 39 -53 -51q-4 -35 3 -41.5t52 -12.5l59 -6v-65q0 -76 27 -76q8 4 14 12q14 23 50 10.5t81 -55.5q55 -51 60.5 -80.5t-33.5 -60.5q-37 -27 -43 -58q-6 -20 -31 -24q-31 -4 -237 -4h-262v41q0 23 7 32t25 13q63 16 6 57 q-20 16 -55 37q-80 45 -99.5 65.5t-41.5 81.5q-18 45 -16 68zM244 895q0 -2 2 -4q6 -20 18 -17l6 11q0 12 -16 14q-10 2 -10 -4zM426 825q-6 -14 2 -80l4 -71h127q125 0 125 12q0 10 -39 47q-25 23 -37 28t-28 -5q-29 -15 -43 -15q-16 0 -62 47q-18 20 -32.5 30.5t-16.5 6.5 z" />
<glyph unicode="&#xa7;" d="M20 -142.5q0 13.5 1024 13.5t1024 -13.5t-1024 -13.5t-1024 13.5z" />
<glyph unicode="&#xad;" horiz-adv-x="339" d="M47 922q-65 61 29 180q43 53 62.5 62.5t49.5 -11.5q25 -18 17 -74l-6 -55l61 -4q45 -2 53.5 -8t8.5 -37q0 -27 -7.5 -34t-40.5 -9q-96 -10 -34 -43l12 -6q49 -16 57 -52q16 -61 -8.5 -93.5t-67.5 -10.5q-63 33 -88.5 48.5t-45 31.5t-22.5 26.5t-3 28.5q0 35 -27 60z" />
<glyph unicode="&#xbf;" d="M20 -142.5q0 13.5 1024 13.5t1024 -13.5t-1024 -13.5t-1024 13.5z" />
<glyph unicode="&#xc0;" horiz-adv-x="946" d="M20 588q0 27 39 127q27 68 33 98.5t-2 58.5q-10 53 -10 134q-2 84 -17 98q-20 20 -16 51t27 47q33 20 96 21q41 0 59.5 8t44.5 35q25 27 30 42t1 46q-10 47 -41 84t-31 45q0 2 10.5 5t28 5t34 4t31.5 3t17 1q39 4 67 -68.5t36 -201.5q6 -80 35.5 -137.5t66.5 -57.5 q18 0 34.5 -9t23 -10t34.5 13q27 14 44.5 10t92.5 -43q92 -49 116 -66.5t24 -39.5q0 -14 -11.5 -30.5t-30 -28t-34.5 -11.5q-29 0 -98 47q-57 39 -80 44.5t-39 -17.5q-18 -20 -35 -21q-16 0 -23.5 -6t-7.5 -24.5t8.5 -45t24.5 -69.5q43 -113 43 -137.5t-43 -24.5t-61 -20 q-31 -37 -96.5 -4.5t-186.5 143.5q-63 59 -77.5 55t-41.5 -86q-12 -39 -22.5 -56t-23.5 -24.5t-36 -7.5q-37 0 -37 21zM367 996.5q0 -13.5 13 -13.5t13 13.5t-13 13.5t-13 -13.5zM379 742.5q0 -13.5 12 -13.5q10 0 74 -47q51 -39 61.5 -30.5t-18.5 63.5q-14 27 -27.5 34 t-46.5 7q-55 0 -55 -13.5z" />
<glyph unicode="&#xc1;" horiz-adv-x="1013" d="M29.5 720q-21.5 68 3.5 116q33 55 145 73q102 16 43 78q-27 31 -24.5 56.5t36.5 56.5q37 37 46 102q4 55 29.5 94t58.5 45q28 5 71 58q29 37 59.5 49t49.5 -4q4 -8 -39 -64.5t-39 -64.5q8 -12 86 -66q53 -35 71.5 -60.5t47.5 -96.5q35 -80 36 -123t-28 -68 q-20 -18 -15 -47t50 -149q53 -143 33 -158q-8 -8 -33 -4t-36 18t-34 68q-12 25 -26.5 34t-57.5 15q-66 8 -78 22q-16 14 -67 14.5t-56 -16.5q-4 -10 -12 -55q-4 -16 -17.5 -29.5t-27.5 -21.5t-32.5 -17.5t-26.5 -17.5q-25 -20 -62 -14t-41 30q-2 12 -14 26.5t-31 25.5 q-47 27 -68.5 95zM160 768q-8 -12 1 -25.5t25 -13.5q14 0 24.5 17.5t0.5 27.5q-10 8 -26.5 7t-24.5 -13zM434 1096q-27 -74 25 -74q27 0 32.5 11t-6.5 40q-20 47 -30 49q-8 2 -19 -22q0 -2 -2 -4zM461 879q0 -6 34.5 -30t63.5 -38q10 -4 12 8q-3 37 -28 55q-8 6 -19.5 9.5 t-21.5 4.5t-19.5 1t-15.5 -3t-6 -7zM717 846.5q0 19.5 18 109.5q29 156 45 177q8 8 33 24q78 47 145 14q57 -29 29 -79q-4 -8 -12 -19q-23 -25 -45 -24q-27 0 -40 -25t-26 -94q-18 -94 -50 -122t-79 5q-18 14 -18 33.5z" />
<glyph unicode="&#xc2;" horiz-adv-x="962" d="M20 985l37 92q35 94 64 115q25 16 93.5 18t109.5 -14q25 -8 31.5 -4t21.5 35q16 39 9 51t-46 12q-33 0 -61.5 20.5t-28.5 43.5q0 27 25.5 48t54.5 21q36 0 59 35q20 33 68 33q29 0 44 -10.5t44 -48.5q39 -61 39 -66q0 -6 -29 -12q-59 -6 -18 -129q27 -78 45 -82t61 59 q86 129 160 129q49 0 54 -42t-40 -81q-29 -25 -76 -90q-39 -51 -42 -63.5t16 -38.5q20 -31 30.5 -31t32.5 25q25 27 45 26q18 0 43 -21.5t25 -37.5q0 -14 29 -68q23 -49 24.5 -103t-20.5 -81q-23 -25 -68 -25t-76 -12q-25 -8 -27.5 -16t5.5 -31q16 -43 11 -58.5t-38 -15.5 q-25 0 -37 9.5t-26 41.5q-14 31 -27.5 41.5t-38.5 12.5q-33 4 -37 -2t2 -41q10 -72 -28.5 -84.5t-100.5 43.5q-51 47 -76 47q-23 0 -55 29l-31 28l-14 -39q-8 -27 -15 -41t-16.5 -23t-19.5 -13.5t-27 -6.5q-39 -4 -41 15.5t27 91.5l27 67l-60 66q-61 66 -88 119zM188 1044 q-37 -57 15 -122q6 -8 12 -12.5t10 -4.5t6 6q4 13 39 66q20 29 27.5 46t-1.5 32.5t-42 17.5q-16 2 -27.5 0t-19.5 -8t-19 -21zM377 865.5q4 -5.5 12 -11.5t20.5 -10t28 -6t29.5 -2q53 0 70 26q6 11 -2 17q-10 12 -81 10t-77 -12q-4 -6 0 -11.5z" />
<glyph unicode="&#xc4;" horiz-adv-x="706" d="M20 1169q0 16 16.5 35t41 32t45.5 13q27 0 89 75t62 108q1 30 11 36q12 12 48 8.5t48 -18.5q20 -23 45 -24.5t37 18.5q14 27 57 23q27 -2 36 -10.5t11 -32.5q4 -37 -10 -52q-16 -16 -11 -31.5t42 -48.5q47 -47 67 -100q18 -49 20.5 -117.5t-13.5 -105.5q-16 -33 6 -68 q45 -70 -9 -106q-20 -16 -21 -26.5t13 -55.5q14 -39 15.5 -51.5t-11.5 -18.5q-57 -20 -80 49q-4 16 -9 24.5t-11 14.5t-15.5 9.5t-23.5 3.5q-18 2 -30.5 -1t-24.5 -12.5t-29 -29.5l-43 -50l-162 -4q-68 0 -121 2t-61 7q-23 12 -24 50t20 56q18 14 94 23q72 4 84 20 q20 27 43 110t12 99q-16 31 -54 49.5t-85 18.5q-33 0 -59.5 10t-41 28.5t-14.5 40.5zM284.5 1203q-1.5 -9 16.5 -25q29 -27 39 -13q10 10 25.5 56.5t15.5 62.5q0 49 -66 -33q-29 -39 -30.5 -48zM323.5 869.5q-4.5 -21.5 6.5 -29.5q14 -6 32.5 11t18.5 40t-11.5 30t-23.5 -10 q-18 -20 -22.5 -41.5zM410 1103q-2 -13 3 -28.5t15 -25.5q12 -10 16.5 -9t4.5 13q0 18 -8.5 40.5t-20.5 22.5q-8 0 -10 -13zM492 1190l12 -45q14 -41 26 -41q27 0 -2 61q-16 29 -26 31q-12 0 -10 -6z" />
<glyph unicode="&#xc7;" horiz-adv-x="1028" d="M55 1462q33 27 70 28t106 -24q53 -18 72 -18t66 18q59 23 119.5 24t175.5 -20q78 -14 103.5 -25t61.5 -52q55 -59 97 -80q129 -66 22 -183q-47 -53 -87 -55t-93 47q-35 33 -55.5 40t-69.5 7q-59 0 -68.5 -10t15.5 -49q20 -33 59 -25q49 8 120 -30.5t118 -100.5 q57 -76 90 -104q59 -57 12 -96q-20 -18 -178 -39q-139 -18 -152 -33q-6 -8 -8 -25q-2 -23 -15 -36t-50 -27q-59 -27 -121 -25t-68 29q-2 10 2 14t14.5 6.5t32.5 2.5q55 0 56 14q0 10 -29 37.5t-70 60.5t-75 51q-66 37 -92 72q-31 39 -74 68q-37 25 -62.5 78t-25.5 104 q0 41 28 100l31 60l-57 51q-97 88 -21 145zM274 1214q0 -12 11.5 -14t46.5 4q55 8 60.5 15t-23.5 30q-43 35 -69 25t-26 -60zM291 997q6 -14 106 -94q129 -102 150 -72q12 16 2 78q-6 58 -41 101q-29 33 -52.5 37t-60.5 -17q-31 -18 -71 -20q-6 0 -11.5 -1t-9.5 -2t-7 -2 t-4 -3.5t-1 -4.5zM415 1375.5q1 -5.5 25 -21.5q72 -47 107 6q22 29 22 41q0 8 -29.5 10t-63.5 -3t-46 -15q-16 -12 -15 -17.5zM682 938q-10 -23 2 -36t33 -7q14 6 20 2t6 -20q0 -25 12.5 -33t24.5 8q15 18 -20 51q-23 20 -35 30.5t-21.5 13.5t-13.5 1t-8 -10zM690 1318 q0 -13 13.5 -13t13.5 13t-13.5 13t-13.5 -13z" />
<glyph unicode="&#xc8;" horiz-adv-x="892" d="M20 813q-4 39 33 139.5t70 139.5q20 25 24.5 37t-6.5 26q-33 45 -37 68.5t17 62.5q14 31 31.5 46.5t50.5 25.5q57 20 92 65q25 31 26 40.5t-14 25.5q-20 25 -20 33q0 10 39 10t73 -47q35 -45 111 -92q51 -29 67.5 -47.5t30.5 -63.5q14 -39 25.5 -54.5t36.5 -23.5 q127 -37 159.5 -56.5t32.5 -55.5q0 -55 -40 -65.5t-106.5 24t-117.5 20.5q-20 -8 -18 -22q6 -25 4 -68v-49l96 -6q61 -2 88 -10.5t57 -30.5q41 -31 47.5 -54.5t-20.5 -52.5q-20 -20 -50 -21t-48 17q-14 20 -72 21q-102 2 -162.5 30.5t-89.5 89.5q-8 16 -17.5 22.5t-25.5 8.5 t-53 2h-82v-106l137 -76q139 -76 180 -80q14 -2 22.5 -4t14.5 -6t9 -11.5t6 -17.5q8 -35 32 -84q47 -92 -43 -100q-25 -2 -38 5t-31 32q-43 61 -91.5 81.5t-156.5 26.5l-133 6l-8 52q-6 53 -27 63q-68 31 -84 44t-21 40zM260 1239q0 -4 17.5 -13t45 -20.5t54 -21.5t48 -18.5 t24.5 -8.5q23 -12 30 -4q14 14 4 34t-39 36q-23 14 -67.5 22t-80.5 7t-36 -13z" />
<glyph unicode="&#xc9;" horiz-adv-x="909" d="M20 999q0 33 36 82t79 76l45 29v106q0 66 5 90.5t24 40.5q27 27 39 27q4 0 10 -2t12 -7t13.5 -12.5t14.5 -15.5t13 -17.5t13 -17.5q14 -27 35.5 -17.5t21.5 40.5q0 35 49 94q49 63 80 64q72 0 10 -54l-31 -32l56 -58q57 -57 88 -57q33 0 37 -25.5t-19 -95.5 q-29 -84 -26.5 -113.5t39.5 -68.5q45 -47 57 -76q18 -31 70 -35q43 -4 71.5 -23.5t28.5 -46.5q0 -23 -62.5 -70.5t-92 -47.5t-52.5 24q-14 16 -35.5 19.5t-83.5 -0.5q-121 -6 -123 -21q2 -10 21 -30q12 -12 25.5 -19.5t36 -11.5t63.5 -4q70 -4 83 -9.5t13 -29.5 q0 -14 -4 -21.5t-14.5 -10.5t-32.5 -5q-49 -4 -49 -25q0 -14 -26 -42.5t-39 -28.5t-73 45q-37 31 -62.5 40t-74.5 11l-82 4l-4 76q-2 55 -11 71.5t-50 45.5q-37 27 -70 58.5t-52.5 61t-19.5 45.5zM172 1014q-4 -14 4 -27q14 -25 26.5 -22t16.5 30q6 45 -15.5 45t-31.5 -26z M315.5 922q-0.5 -43 8.5 -52q8 -8 41 21q18 18 43.5 25.5t80.5 9.5q94 6 95 22q0 17 -31 27q-31 8 -126 8t-103 -10q-8 -8 -8.5 -51zM319 1257q-10 -29 8.5 -45t75.5 -30q51 -12 66.5 -10t28.5 20q18 24 16 51q-4 18 -20.5 23.5t-75.5 7.5q-53 2 -72.5 -1t-26.5 -16z" />
<glyph unicode="&#xca;" horiz-adv-x="894" d="M20 913q0 82 68 82q27 0 38 -8t21 -39q25 -57 60 -65q16 -4 24 12q8 27 0 248q-4 180 6.5 239.5t49.5 79.5q27 16 58.5 16.5t50 20t65.5 19.5q31 0 46 -8.5t34 -30.5q29 -41 84 -64q49 -18 70.5 -57t21.5 -109q0 -31 -3 -47t-11.5 -30.5t-26.5 -32.5l-43 -41l65 -60 q66 -59 97.5 -87.5t52 -51t25 -32t4.5 -19.5q0 -29 -21.5 -54.5t-46.5 -25.5t-59 45q-33 47 -68 55q-33 8 -45 41q-14 33 -41 33q-25 0 -25 -7t25 -48q27 -45 27 -117v-72l45 11q31 10 88 12q31 0 41 -7t18 -32q10 -25 6 -36t-26 -32q-31 -27 -104 -39t-120 -2 q-39 10 -182 19l-147 8l-4 66q-2 31 -7.5 44t-15.5 22t-39 24q-57 29 -106.5 79t-49.5 78zM328 860q0 -31 33.5 -54.5t78.5 -23.5q37 0 41.5 16.5t-24.5 47.5q-27 29 -69 49t-52 10q-8 -8 -8 -45zM369 1083q0 -61 82 -61q51 0 55 15t-37 50q-100 86 -100 -4zM369 1330 q0 -13 26.5 -13t26.5 13t-26.5 13t-26.5 -13z" />
<glyph unicode="&#xcb;" horiz-adv-x="735" d="M21 927q6 89 69 167q18 27 21.5 51t-2.5 112t-2 117t28 76q31 66 64 86q74 53 145 -18q41 -39 45 -39t10 26q8 31 46 26t42 -38q4 -31 91 -68q139 -63 139 -168q0 -25 -15.5 -48t-58.5 -66q-51 -51 -62.5 -71.5t-11.5 -65.5q0 -41 8.5 -62.5t32.5 -50.5q31 -35 37 -68.5 t-12 -54.5q-18 -16 -48 -13t-50 25q-25 27 -40.5 27t-52.5 39q-25 25 -29.5 41t-0.5 47l10 47l-209 -8l-4 -88q-4 -88 14 -101q10 -8 50 -19t86.5 -18.5t76.5 -7.5q72 0 158 -24.5t104 -50.5q14 -20 13.5 -31.5t-15.5 -34.5q-18 -27 -42.5 -31t-67.5 13q-55 23 -363 47 q-98 10 -106 30q-23 43 -53 93q-51 86 -45 175zM244 1366q12 -12 28.5 -8t16.5 18q0 39 -29 25q-23 -18 -16 -35zM302 1076.5q3 -13.5 60 -13.5q61 0 60 16q0 9 -29 17q-29 6 -37 6q-57 -12 -54 -25.5zM356 1264q0 -10 25 -16.5t98 -16.5q82 -10 99 18q1 9 -3 17 q-8 12 -113.5 11t-105.5 -13z" />
<glyph unicode="&#xce;" horiz-adv-x="806" d="M20.5 1116q-2.5 14 10.5 45q20 66 82.5 83.5t103.5 -27.5q37 -39 52.5 -31t17.5 67q2 27 3 39.5t6 20.5t10 11t20 3q27 4 46 17.5t19 27.5q0 12 -47 35t-74 6q-25 -16 -53 -16q-20 0 -25.5 12t13.5 23q14 8 39 61q25 47 58.5 51t115.5 -26q96 -37 114.5 -75t-22.5 -116 q-25 -49 -61 -149q-23 -68 -24 -83.5t15 -29.5q59 -41 148 -18q92 25 138 9t60 -77q12 -53 -30.5 -80t-83.5 10q-14 14 -28.5 13.5t-63.5 -17.5q-51 -14 -67.5 -13t-55.5 21q-47 29 -64.5 20t-11.5 -59q2 -35 12 -41t66 -8q57 -4 90 -25.5t33 -45t-33 -45t-90 -23.5 q-49 -4 -62.5 -10t-17.5 -29q-6 -18 -15.5 -25.5t-31.5 -7.5q-25 0 -34 7.5t-11 25.5q-6 39 -22.5 47t-67.5 -6q-127 -35 -127 51q0 37 18 49.5t100 32.5l91 21l4 57q2 45 -8.5 55.5t-71.5 20.5q-43 6 -89 35.5t-75 66.5q-16 25 -18.5 39z" />
<glyph unicode="&#xcf;" horiz-adv-x="827" d="M20.5 1105q-0.5 13 12.5 36q20 37 57 53l37 18l-41 78q-41 78 -41 115q0 25 16.5 48.5t44 37.5t58.5 14q53 1 69 19q20 25 51 20.5t44 -31.5q8 -27 36.5 -41t43.5 3q10 10 16 36q4 29 40 32t50 -23q14 -29 29 -29q23 0 44 -26.5t21 -53.5q0 -37 -33 -65q-29 -27 -73 -127 q-45 -96 -64 -119q-20 -20 -14 -53q2 -20 16.5 -25.5t73.5 -9.5q86 -4 102 -17q18 -14 52 -4q31 6 59.5 -14.5t28.5 -48.5q0 -29 -38 -68t-65 -39q-33 0 -80 29q-51 27 -98 22l-47 -4q-8 -106 -14 -213h-80l-4 101q-4 76 -15.5 104.5t-42.5 28.5q-55 0 -132 56t-107 122 q-12 25 -12.5 38zM201 1360q-6 -12 37 -86q63 -106 81 -31q4 14 5 37q3 64 -13 70q-35 10 -70.5 13t-39.5 -3zM207 1065q0 -14 41 -28.5t59 -8.5q23 9 17 25q-2 10 -32 16t-57.5 6t-27.5 -10zM519 1178q17 33 87 53q86 29 144.5 12.5t58.5 -65.5q0 -66 -98 -70 q-63 -4 -101 -12q-43 -10 -69 14q-39 35 -22 68z" />
<glyph unicode="&#xd1;" horiz-adv-x="18" />
<glyph unicode="&#xd3;" horiz-adv-x="18" />
<glyph unicode="&#xd4;" horiz-adv-x="1079" d="M37 874q-51 59 63 136q61 41 75.5 76.5t-21.5 56.5q-29 14 -30 53t26 51q20 12 77 23q37 4 112 35.5t118 33.5q53 6 88 20.5t35 31.5q0 14 -39 53l-41 39l-45 -43q-49 -47 -80 -43q-8 0 -8 8q0 11 43 68q18 27 29.5 38t24.5 16t36 5q31 0 46 -9.5t38 -39.5 q18 -25 28.5 -34t26.5 -13t51 -4q47 -2 65.5 -11.5t47.5 -42.5q37 -43 44 -92t-20 -84q-23 -29 -16.5 -37t49.5 -8q86 0 143.5 -46t57.5 -112q0 -41 -19.5 -68.5t-46.5 -27.5q-23 0 -44 24.5t-25 55.5q-2 18 -11.5 25.5t-33.5 7.5q-29 0 -35 -9.5t-8 -60.5q-4 -51 1 -61.5 t29 -10.5q37 0 61.5 -23.5t24.5 -59.5q0 -33 -11 -52.5t-37.5 -29t-74.5 -9.5q-51 0 -74.5 -6t-54.5 -30q-86 -68 -196.5 -69t-200.5 60.5t-117 163.5q-16 59 -41 58q-8 -2 -16 -15q-10 -16 -42 -12t-52 24zM279 893q20 -115 92.5 -173t173.5 -40q74 14 76 37q0 4 -5 6 q-10 8 -104 10q-68 2 -87 8.5t-48 40.5q-37 46 -60 105q-23 55 -36 55q-12 0 -2 -49zM404 1031q8 -40 32 -46q25 -4 45 38t4 60q-29 35 -69 4q-20 -16 -12 -56zM595 934q-1 -8 4 -15.5t13.5 -11.5t28.5 -12q55 -25 71.5 -11.5t12.5 74.5q-2 37 -5 50.5t-11.5 18.5t-28.5 7 q-37 2 -54.5 -14t-27.5 -62z" />
<glyph unicode="&#xd6;" horiz-adv-x="745" d="M20 1190q-4 35 17.5 54.5t64.5 19.5q39 0 63.5 42t16.5 99q-6 53 17 72q20 16 20 61q0 43 10 51q12 14 49 8t56 -26q25 -29 31 -84l8 -55l80 -17q25 -6 66.5 -12t62 -11.5t48 -16.5t48.5 -32q25 -25 31 -45t6 -75t-7.5 -75t-35.5 -48q-39 -39 -37 -61.5t47 -65.5t45 -66 q0 -27 -24.5 -49t-55.5 -22q-35 0 -55 -23q-16 -20 -55 -12q-39 6 -76 -13q-43 -23 -101.5 -19.5t-107.5 30.5q-100 55 -123 235q-8 61 -15.5 75.5t-41.5 25.5q-29 10 -39 20t-13 35zM205 1083q4 -41 8 -79l127 -9q131 -8 147 -14q16 -4 17 14q-2 29 -31 60q-14 14 -42 19 t-103 7zM238 1270q-8 -20 10 -40t47 -20t30 11.5t-30 40.5q-18 16 -28.5 22t-16.5 3t-12 -17zM409 1569q3 16 16 22t38 4q31 -2 38 -10t7 -41t-7 -40t-40 -7q-20 0 -30.5 3t-14.5 9.5t-6 18.5q-4 25 -1 41z" />
<glyph unicode="&#xd9;" horiz-adv-x="1001" d="M20 1194q0 31 21.5 57.5t46.5 26.5q23 0 51.5 38t28.5 66.5t28.5 56t49.5 17.5q27 -10 77 -15t68 3q8 2 11.5 4t2 7t-6.5 10t-15 18q-29 33 -29 39q0 10 39 10t66 -35l24 -35l60 27q78 37 132 23.5t54 -68.5q0 -29 20.5 -46.5t20.5 -33.5t27 -51q49 -61 12 -99 q-14 -16 0 -40q29 -55 -45 -123q-35 -35 -36 -88.5t36 -88.5q33 -31 33 -63q0 -31 -21.5 -56.5t-46.5 -25.5q-23 0 -53 -41q-23 -33 -49.5 -49t-65.5 -23.5t-106 -7.5q-106 0 -150.5 20.5t-89.5 90.5q-49 76 -92 115q-49 47 -49 96q0 41 20.5 74.5t55.5 46.5q55 18 -3 47 l-36 12q-90 18 -91 84zM289 864q0 -18 32.5 -37.5t77.5 -23.5l64 -10l-4 43q0 20 -2 27t-10.5 12.5t-17.5 6.5t-34 3q-106 2 -106 -21zM381 1250.5q0 -13.5 20.5 -13.5t20.5 13.5t-20.5 13.5t-20.5 -13.5zM389 1092q-6 -10 21 -35q23 -23 41 -13t8 37q-8 16 -34 20.5 t-36 -9.5zM569 1358q0 -10 21.5 -19.5t27.5 -3.5q14 16 -18 31q-29 12 -31 -8zM596 780q0 -20 8 -18q17 4 19 29q0 18 -13.5 18t-13.5 -29zM598 1192q-2 -6 2 -23q10 -31 10.5 -51t14.5 -6q6 6 8 19.5t0 26.5t-8.5 23.5t-14.5 12.5q-10 4 -12 -2zM756 969q0 37 10 45 q12 12 49 8t49 -21q20 -20 62 -38q41 -16 53 -51t-14 -64q-27 -29 -61 -23t-85 52q-63 55 -63 92z" />
<glyph unicode="&#xda;" horiz-adv-x="905" d="M20 1038q4 29 11.5 37t36.5 12q41 2 63 -30q45 -61 47 47q0 33 -3 46t-11 20.5t-31 17.5q-31 14 -39 25.5t-8 37t8 36.5t37 24q45 20 51 47q8 31 46 25.5t42 -40.5q4 -33 19 -49q12 -14 83.5 -16t80.5 10q8 12 -27 43q-37 35 -34 88.5t42 108.5q41 57 74 57q29 0 37 -12 t-13 -29q-18 -18 -10 -39q10 -27 12.5 -101.5t-8.5 -80.5q-41 -25 54 -53l34 -8q12 -4 21 55q4 43 11 52t36 9q16 0 22.5 -1t11.5 -10t7 -21.5t4 -40.5q4 -45 11 -60.5t24 -17.5q27 -6 46 -23.5t48 -62.5q53 -84 10 -133q-47 -55 -96 8q-25 33 -34 32t-5 -40q2 -45 35 -52 q35 -8 57 -43q18 -23 20.5 -48t-3.5 -101q-8 -117 -35 -152q-20 -27 -41 -29.5t-115 3.5q-131 10 -180 35q-59 27 -117 41q-55 14 -98 57t-59 102q-8 25 -16.5 38t-22 23.5t-39.5 20.5q-104 47 -97 135zM272 1079q0 -43 23 -43q16 0 57 38t41 54q0 12 -50 14.5t-60 -7.5 q-10 -8 -11 -56zM287 838q14 -37 42.5 -67t49.5 -30q25 0 33 68q10 74 43 135q31 66 20 66q-14 0 -29 -29q-14 -27 -77 -53q-68 -29 -81.5 -44.5t-0.5 -45.5zM545 758q12 -12 33.5 13.5t39 68t17.5 75.5q0 63 -35 23q-8 -8 -18 -25q-18 -31 -31.5 -88t-5.5 -67zM674 733 q0 -25 18 -6q8 8 8 16q0 12 -13 12.5t-13 -22.5z" />
<glyph unicode="&#xdb;" horiz-adv-x="1009" d="M20.5 1250.5q-0.5 11.5 14.5 33.5q23 33 16 59q-14 43 36 83t149 67q61 14 98 59q20 27 36.5 36t43.5 9t43 -10t41 -47q41 -63 41 -67q0 -23 -45 0q-20 10 -35 24q-49 53 -47 31q4 -29 65 -103q23 -29 29 -47t2 -51q-4 -31 -1 -40t17 -9q29 0 48.5 20.5t23.5 51.5 q0 16 4 25t11 13.5t20 6.5q33 6 51 -19q12 -16 19.5 -15t29.5 23q35 31 84 33q27 0 39 -5t24.5 -18.5t36.5 -50.5q47 -68 66 -122q12 -33 10 -46.5t-16 -31.5q-74 -78 -133 71q-16 41 -33.5 46.5t-52.5 -21.5q-20 -16 -23.5 -26.5t6.5 -34.5q14 -37 7 -137.5t-27 -168.5 q-20 -59 -84 -120.5t-125 -77.5q-57 -14 -137 -7t-123 33q-45 29 -84 29q-25 0 -38 6t-22.5 25.5t-13.5 51.5t-6 87q-4 86 0 110.5t23 45.5q31 33 26 84q-4 35 -10 43t-31 4q-37 -4 -59 28q-14 25 -14.5 36.5zM236 1120q-4 -18 2 -30q10 -16 21 -12t11 24q0 27 -12 35 q-14 8 -22 -17zM237.5 926.5q-14.5 -11.5 6.5 -68.5q33 -102 143 -113q49 -4 94 6.5t45 26.5q1 13 -73 62q-76 49 -142 75q-59 23 -73.5 11.5zM252 1331q8 -16 20.5 -14t12.5 18q0 18 -13 29q-12 6 -20 -7.5t0 -25.5zM416 1110q-2 -16 52 -38.5t83 -18.5q23 2 29 10t6 33 q0 41 -21 43q-33 2 -91 -9.5t-58 -19.5z" />
<glyph unicode="&#xdc;" horiz-adv-x="722" d="M20 1192q-4 86 21 123q14 18 14 28.5t-14 32.5q-20 33 -6 60q14 29 38.5 31.5t88.5 -17.5q182 -59 182 33q0 27 35 80q25 35 38 42t42 1q57 -8 77.5 -13.5t52.5 -19.5t60.5 -40t38.5 -40t13.5 -31.5t3.5 -58.5q0 -57 -8.5 -76.5t-51.5 -62.5t-52 -62.5t-9 -75.5 q0 -51 8 -74.5t39 -64.5q51 -66 46 -101.5t-71 -72.5q-43 -25 -58.5 -28t-37.5 10q-31 18 -74 2q-41 -14 -93 -14.5t-89 14.5q-80 29 -133 139q-41 82 -66 121q-31 49 -35 135zM211 1542q-4 39 7 54.5t48 13.5q29 -4 36 -12.5t7 -38.5q0 -33 -7 -40.5t-40 -7.5 q-29 0 -39 6.5t-12 24.5zM305 1194q0 -10 35 -10q16 0 43 15t47.5 36t20.5 33q0 20 -27 2q-8 -4 -14 -13q-14 -18 -62 -34q-45 -14 -43 -29zM357 939q5 -13 55 -5q51 6 60 16t-11 43q-23 37 -36 38t-40 -34q-33 -45 -28 -58z" />
<glyph unicode="&#xdf;" horiz-adv-x="18" />
<glyph unicode="&#xe0;" horiz-adv-x="630" d="M20 866q0 37 19 45q16 10 82 68l63 57l-75 80q-113 123 -74 168q18 23 48 18.5t60 -34.5q18 -16 32.5 -23.5t37.5 -11.5t66 -6q199 -6 247 4q33 6 55.5 -4t28.5 -28.5t-6 -41t-41 -37.5l-49 -22l4 -121q4 -88 9 -106.5t36 -34.5q53 -29 44 -65t-75 -64 q-47 -18 -72.5 -17.5t-37.5 25.5q-10 20 -17.5 20t-33.5 -22q-37 -25 -99.5 -33t-103.5 8.5t-94.5 81t-53.5 96.5zM141 1470q0 10 43 5q27 -2 45.5 -18.5t55.5 -65.5q55 -78 57 -91q0 -10 -30.5 -10t-100.5 88q-70 84 -70 92zM155.5 859q2.5 -42 32.5 -73q23 -23 39.5 -27.5 t48.5 1.5q63 8 68.5 26t-39.5 84q-43 66 -67.5 78.5t-55.5 -18.5q-29 -29 -26.5 -71z" />
<glyph unicode="&#xe1;" horiz-adv-x="813" d="M30.5 859q-28.5 38 14.5 77q16 14 37.5 16t79.5 -4q88 -8 117 -22q25 -14 42 6t25 74l8 57l-41 -8q-27 -6 -34 -2t-7 28q0 33 31 47.5t115 22.5q104 10 104 23q0 6 -8 16q-18 20 -39 20q-14 0 -88 81.5t-74 97.5q0 8 41 8q25 0 40.5 -11.5t41.5 -48.5q59 -84 60 -45 q0 10 -2 25q-8 37 7 58.5t46 21.5q68 0 86 -115q6 -37 22.5 -69.5t57.5 -82.5q70 -90 78 -116q16 -66 -39 -219q-43 -121 -63.5 -154t-51.5 -33q-37 0 -51 15q-16 14 -78 -9q-96 -37 -177 -1t-93 122q-6 33 -16.5 52.5t-32 26.5t-56.5 7q-74 0 -102.5 38zM340 729 q0 -14 30.5 -34.5t53.5 -20.5q33 0 18 22q-11 13 -34 25q-68 35 -68 8zM425 856q7 -6 71 -39q45 -20 60 -23t26 9q14 18 10 49q-4 20 -16.5 25.5t-63.5 9.5q-76 4 -84 -13q-10 -12 -3 -18zM479 1020q2 -43 9.5 -50t46.5 -7q47 0 54 15t-24 48t-61 43q-18 6 -22.5 -2 t-2.5 -47z" />
<glyph unicode="&#xe2;" horiz-adv-x="727" d="M20 961l41 36q41 35 115 54q76 16 76 24q0 18 -32 27.5t-64 1.5q-41 -14 -60 -14q-27 0 -16 40q8 29 24 39l29 15l-29 35q-23 31 -25.5 67.5t15.5 54.5q16 16 51 17q35 0 64 39q31 41 57 41q18 0 51 -37t62 -92q18 -43 18 -51.5t-24 -8.5q-27 0 -62 56q-37 53 -45 53 q-12 0 -35 -37q-16 -27 -14 -36t37 -38q25 -23 69 -47t86 -40.5t62 -16.5q49 0 76.5 -43t-0.5 -72q-12 -12 -2 -45t35 -53q33 -27 17.5 -58.5t-65.5 -37.5q-33 -4 -32 -31q0 -16 16 -24.5t70 -18.5q86 -14 113.5 -52t-19.5 -79q-16 -16 -30.5 -18.5t-47.5 7.5 q-37 10 -115 23q-66 8 -88 27q-14 12 -26.5 11t-48.5 -20q-57 -31 -126 -23.5t-110 48.5q-27 27 -35 53.5t-18 104.5zM148 767.5q2 -9.5 22 -28.5q33 -27 66.5 -21.5t42.5 38.5q10 33 61 59q33 16 43 29.5t10 38.5q0 29 -10 35t-72 8q-150 6 -141 -66q2 -35 -14 -63 q-10 -20 -8 -29.5z" />
<glyph unicode="&#xe4;" horiz-adv-x="684" d="M29 739q-20 66 10.5 134.5t97.5 103.5q14 8 24.5 22.5t13.5 23.5t8 35.5t7 31.5q2 8 0 13t-8 5q0 -2 -23.5 -5t-39.5 -7q-35 -6 -42 -2t-7 28q0 37 26 43q27 8 27 23q-2 8 -17 8q-12 0 -24 8t-20.5 21.5t-14.5 31t-6 35.5q0 50 43 99q72 80 123 22q25 -27 16 -67 q-6 -27 2 -44.5t49 -58.5q90 -92 99 -37q2 12 2 33q-4 37 -10.5 48t-28.5 18q-20 4 -26.5 13t-6.5 32q0 14 1 21t5 12.5t10.5 8.5t16.5 3q31 4 43 -9q14 -14 59 -6q53 8 68.5 -13t9.5 -95q-6 -49 -14 -71.5t-27 -41.5q-25 -23 -27 -33t15 -51q20 -51 20 -102q0 -43 22.5 -71 t94.5 -71q98 -63 49 -118q-20 -23 -48 -25t-50 19q-55 51 -66 -13q-6 -25 -15 -33t-30 -10q-39 -6 -47 23q-6 27 -13 25.5t-44 -29.5q-27 -16 -53.5 -22.5t-87.5 -4.5q-84 0 -115 17.5t-51 78.5zM128 832.5q3 -17.5 22 -54.5q16 -25 25 -37t22.5 -17t35.5 -7q33 -2 50.5 6 t48.5 39q43 41 34.5 58.5t-77.5 29.5q-63 13 -86 33q-47 39 -68 -13q-10 -20 -7 -37.5zM310.5 1016.5q4.5 -21.5 31.5 -21.5q64 1 35 54q-12 25 -23.5 26.5t-27.5 -14.5q-20 -23 -15.5 -44.5z" />
<glyph unicode="&#xe7;" horiz-adv-x="919" d="M23 1206q-8 45 16 72q51 55 102 -14q27 -37 63 -40t62 27q23 27 107 68q82 37 92 37q12 2 84 -33t74 -61q4 -23 21.5 -28t92.5 -11q106 -6 137 -31q53 -49 5 -92q-14 -14 -46 -15.5t-128 5.5q-63 4 -101.5 10t-69 19.5t-52 30.5t-50.5 50q-27 31 -36 34t-36 -15 q-35 -23 -34 -62q0 -27 14 -42t68 -48q127 -78 222 -150.5t105 -99.5q14 -47 -10.5 -67.5t-120.5 -40.5q-37 -8 -55 -54q-16 -39 -46 -51t-91 -6q-31 0 -41.5 7t-10.5 24q0 16 8.5 20t39.5 2q61 -6 73 25q8 18 -14 33q-25 20 -53 20q-23 0 -98.5 71.5t-96.5 112.5 q-16 33 -24 101q-6 49 -15.5 61t-48.5 25q-51 18 -75.5 41.5t-32.5 64.5zM299 956q0 -12 16.5 -32.5t41 -38t46.5 -23.5q88 -25 82 -6q-7 19 -79 64q-104 61 -107 36z" />
<glyph unicode="&#xe8;" horiz-adv-x="800" d="M20.5 707.5q-0.5 11.5 22.5 52.5q16 35 20.5 61.5t-0.5 81.5q-6 82 17 146q23 63 29 108q8 46 20 64q10 12 41 15t43 -9q8 -8 106 -10q61 0 88 -5.5t52 -23.5q39 -31 57.5 -30t54.5 32q41 35 87.5 34t84.5 -40q33 -33 38 -71t-21 -66q-23 -25 -47.5 -23t-42.5 29 q-14 20 -22.5 22t-37.5 -14q-14 -10 -22 -19.5t-12.5 -23.5t-8.5 -39q-4 -37 -11 -47t-30.5 -13.5t-32 -8.5t1 -14t33.5 -24q61 -35 29 -102q-12 -20 -20 -45q-4 -12 -38 -27.5t-79 -25.5t-80 -10q-53 0 -115 20q-43 16 -56 15t-34 -21q-29 -27 -51.5 -27t-44.5 27 q-18 20 -18.5 31.5zM162 993q6 -10 118.5 -10t112.5 12q0 6 -5 11.5t-15.5 8.5t-24.5 5t-31 2q-40 4 -69 20q-31 16 -51 21q-14 0 -28.5 -28.5t-6.5 -41.5zM166 902q0 -13 26.5 -13t26.5 13t-26.5 13t-26.5 -13zM166 1456q0 8 39 8q35 0 69 -41q23 -27 36.5 -30.5t49.5 4.5 q127 31 170 -8q39 -35 19.5 -67t-84.5 -40q-55 -8 -100 -20q-33 -10 -46.5 -9.5t-31.5 17.5q-27 25 -27 45q0 18 -47 78q-47 55 -47 63zM287 899q-2 -8 28 -12h7q6 0 15 -1t15 -2t13.5 -1t11.5 2t8 5t6 9q2 4 -1 7t-9 5t-15.5 3t-23.5 1q-51 0 -55 -16z" />
<glyph unicode="&#xe9;" horiz-adv-x="827" d="M20 1008q0 33 25 52t55 13q27 -6 70 45q41 53 96 82q57 25 137 19q39 -2 71 -10.5t71 -26t106 -52.5q59 -33 62.5 -81t-54.5 -56q-29 -4 -36 -37q-4 -25 -19.5 -29.5t-79.5 -8.5q-94 -2 -127 -29q-31 -25 -55.5 -25t-71.5 23q-45 25 -54 12.5t15 -61.5q31 -63 108 -86 t163 8q29 10 40 22.5t17 42.5q12 49 43 66.5t60 -8.5q27 -23 30 -54q4 -29 37 -30q49 -8 71.5 -45t-7.5 -64q-53 -45 -152 -8q-41 14 -59.5 15t-61.5 -15q-86 -29 -171 -17.5t-142 60.5q-35 29 -63.5 83t-28.5 91q0 31 -47 49q-29 12 -38.5 23.5t-9.5 36.5zM236 1059 q0 -10 38.5 -28.5t44.5 -10.5q5 10 15 59q6 33 3 42t-20 9q-10 0 -30.5 -13t-35.5 -30.5t-15 -27.5zM328 1288q0 12 61 94q27 35 42 52.5t27.5 23.5t30.5 6q39 0 39 -6q0 -10 -69 -94q-70 -86 -100.5 -86t-30.5 10zM461 991q10 -10 34.5 -5.5t28.5 18.5q6 16 -20 47l-25 32 l-16 -39q-14 -41 -2 -53z" />
<glyph unicode="&#xea;" horiz-adv-x="815" d="M25.5 895q-15.5 29 10 58.5t83.5 37.5q43 6 96 60l51 51l-37 41q-35 43 -34 59q0 25 30.5 56.5t55.5 31.5q28 0 51 41q27 39 63 39q25 0 41.5 -13.5t46.5 -62.5q63 -100 52 -108l-15 -2q-25 0 -74 55q-31 37 -43 44t-26 -5q-23 -18 -21 -42t25 -30q29 -8 39 -41 q8 -18 26.5 -30.5t51 -17.5t86.5 -7q78 -2 98 -18q23 -20 20.5 -51t-28.5 -48q-14 -8 -20.5 -18t-8.5 -26.5t-2 -47.5v-72q-201 -8 -401 -14l4 -33q6 -68 96 -67q47 0 125 -15q53 -12 73.5 -9t67.5 30q68 35 103 35q31 0 58.5 -20.5t27.5 -45.5q0 -14 -11.5 -30.5t-30 -27.5 t-34.5 -11q-31 0 -84 -35q-39 -25 -62.5 -29t-107.5 4q-127 10 -244 52t-131 83q-8 20 21 52q29 31 24 69q-2 23 -10 32t-33 11q-53 6 -68.5 35zM315 1022q0 -10 21.5 -11t44.5 6t25 17q2 6 -3.5 10.5t-17.5 4.5q-70 -4 -70 -27zM478 896q3 -9 34 -5q37 4 37 31t-15.5 29.5 t-35.5 -19.5q-23 -27 -20 -36z" />
<glyph unicode="&#xeb;" horiz-adv-x="706" d="M20 1211.5q-2 17.5 21 41.5q20 23 40.5 22t74.5 -26q35 -16 53 -19t41 5q25 10 28 17.5t-8 23.5q-14 25 0 74t47 86q23 23 52.5 26.5t48.5 -14.5q41 -41 -19 -137q-51 -88 -12 -88q18 0 64 -39q47 -39 77 -54q39 -23 99.5 -77t60.5 -70q0 -35 -44 -56.5t-71 -0.5 q-14 10 -182 6l-170 -6l-6 -62q-8 -68 13.5 -83t117.5 -9q100 4 139 16q18 6 23.5 2t5.5 -26q0 -35 -14 -43q-12 -8 -13 -39q0 -39 -26.5 -48t-118.5 -3q-137 10 -189.5 44t-91.5 138q-49 133 -8 260q16 49 15.5 61.5t-21.5 34.5q-25 25 -27 42.5zM137 1030q-4 -20 21 -24 l114 -7q170 -6 170 15q0 6 -8 14q-14 18 -115 25q-102 6 -116 22q-16 14 -25 15q-8 0 -16 -9.5t-15.5 -23t-9.5 -27.5zM157 1369q-11 19 1 50q8 20 45 17q23 -4 30 -12.5t7 -32.5q0 -27 -6.5 -34t-34.5 -7q-31 0 -42 19z" />
<glyph unicode="&#xee;" horiz-adv-x="827" d="M25.5 1199q-19.5 38 19.5 71q16 16 36.5 19t70.5 -3l77 -8l35 53q35 51 66.5 53t66.5 -45q25 -33 44.5 -40t80.5 -13q88 -6 146 -35q49 -29 71 -28q10 0 22.5 -6.5t23 -16.5t17.5 -21.5t7 -19.5q0 -23 -24.5 -46t-47.5 -23q-25 0 -104 34q-121 55 -117 9q2 -18 33 -56 q27 -33 28 -64.5t-25 -48t-61.5 -1t-60.5 52.5q-31 47 -39 47q-10 0 -11 -24.5t6 -60.5t20 -69q82 -209 81 -278q0 -29 -25.5 -48.5t-45.5 -4.5q-14 10 -70 16l-53 6l-4 133q-2 84 -8.5 116t-28.5 66q-37 53 -72 144q-25 61 -38 76.5t-38 17.5q-59 8 -78.5 46zM267 1209 q-1 -13 12 -40q23 -39 55 -39q31 0 31 8.5t-31 35.5q-29 20 -33 45.5t18 44.5q21 18 21 28q0 31 -33 -12q-8 -10 -16 -25q-23 -33 -24 -46z" />
<glyph unicode="&#xef;" horiz-adv-x="608" d="M39 1370q14 16 49 8q16 -2 30.5 -5t27 -6t21.5 -6t16 -5t13.5 -5t10.5 -6.5t6 -6.5t4 -7t2 -8q4 -27 45 -68q29 -31 36 -56t11 -124l6 -139l93 -88q76 -70 90 -111t-21 -78q-59 -68 -117 46q-18 37 -31.5 32.5t-17.5 -45.5q-4 -35 -10 -43t-35 -8h-41l-4 107 q-2 104 -33 147q-18 27 -23 55.5t-5 108.5v121l-70 57q-104 82 -53 133zM316 1303.5q-1 31.5 42 68.5q45 39 73 36t73 -50q104 -111 37 -182l-31 -33l39 -39q33 -35 40 -86t-18 -80q-20 -27 -47.5 -18.5t-77.5 55.5q-43 41 -53 60.5t-10 60.5q0 63 20 104q18 35 10.5 48.5 t-51.5 17.5q-45 6 -46 37.5z" />
<glyph unicode="&#xf3;" horiz-adv-x="18" />
<glyph unicode="&#xf4;" horiz-adv-x="903" d="M27.5 1153q-13.5 23 1.5 51q14 33 49 32t76 -38q55 -47 82.5 -57.5t68.5 4.5q29 10 38 18t3 18.5t-33 24.5q-23 12 -30 27.5t-9 50.5q-2 45 12.5 67t63.5 42q53 25 80 13.5t68 -75.5q49 -78 90 -112q59 -49 133 -176.5t82 -190.5q4 -41 -3 -62.5t-29.5 -30.5t-63.5 -7 q-39 2 -54.5 -6.5t-44.5 -43.5q-61 -76 -165.5 -91t-178.5 42q-57 43 -75.5 91.5t-18.5 152.5v121l-66 57q-63 55 -76.5 78zM262 925.5q6 -12.5 43 -42.5q35 -31 56.5 -39t70.5 -8q33 0 50.5 2t29.5 9t27 21q31 33 20 76q-6 39 -22 62q-14 18 -23 16q-27 -8 -98.5 -21.5 t-93.5 -9.5q-14 4 -24.5 2t-16 -8t-13.5 -22q-12 -25 -6 -37.5zM565 1350q16 23 99 12q92 -8 134 -24.5t62 -53.5q25 -37 26 -58.5t-22 -45.5q-43 -47 -98 10q-31 33 -70 33q-74 0 -119 44t-12 83z" />
<glyph unicode="&#xf6;" horiz-adv-x="880" d="M22.5 1176.5q-8.5 25.5 24.5 54.5q14 14 27.5 17t34.5 -5q27 -10 43 -2t63 55t54 62.5t-5 32.5q-14 20 -17 57t9 47q6 10 49 10q66 0 92 -69q14 -43 29 -15l10 33q2 23 6 30t13.5 10t31.5 3q31 0 39.5 -6t10.5 -33q6 -39 -15 -55q-16 -10 -12 -20.5t31 -39.5 q55 -59 74.5 -111t15.5 -134q-4 -92 -17 -119q-6 -12 5.5 -24.5t48.5 -34.5q61 -35 127.5 -103.5t66.5 -95.5q0 -57 -45 -58t-96 54q-55 55 -137 100q-68 37 -107 39t-102 -31q-37 -18 -70 -12q-29 8 -83 87t-64 126q-8 39 -74 86q-53 39 -61.5 64.5zM240 1181.5 q0 -26.5 45 -55.5q20 -14 32.5 -26.5t19.5 -26.5t11 -33q8 -55 16.5 -61t38.5 18q35 27 82 19t56 10q10 14 12 69.5t-8 65.5t-34 -7t-24 -36q0 -23 -24.5 -46t-44.5 -23t-45 26q-23 25 -15.5 68t37.5 76q29 30 23 38q-8 6 -56 15q-45 8 -79 -23q-43 -41 -43 -67.5z" />
<glyph unicode="&#xf9;" horiz-adv-x="755" d="M20 944q4 139 8.5 166t24.5 31q12 2 40 26.5t50.5 52t22.5 37.5q0 4 -47 66.5t-47 65.5q0 8 39 8q27 0 47 -18.5t69 -88.5q78 -106 88.5 -106t10.5 47t34 67q23 14 33 14.5t35 -16.5q23 -14 28 -27.5t-1 -49.5q-10 -63 12 -86t92 -23q133 0 160 -100q10 -43 -12 -70 q-16 -16 -16.5 -24.5t14.5 -22.5q27 -31 31.5 -80t-15.5 -72q-51 -55 -100 15q-18 27 -34 33t-52 4l-54 -5l-8 -88q-2 -45 -6 -60t-11 -21.5t-26 -8.5q-39 -6 -45 23q-8 27 -15.5 26.5t-41.5 -26.5q-39 -29 -99.5 -35t-107.5 14q-29 12 -45.5 29.5t-30.5 52.5 q-18 39 -22.5 82t-2.5 168zM119 764q12 -31 33 -51q39 -39 88 -41q20 0 20 14q0 4 -31.5 38t-66.5 65.5t-41 31.5q-25 0 -2 -57zM160 997q8 -31 100 -125t105 -86q37 23 3 111t-100 143q-61 49 -67 50q-14 0 -30.5 -37t-10.5 -56zM500 940q0 -10 55 -10q41 0 49 8.5 t-12 28.5q-16 16 -37 16q-18 0 -36.5 -14.5t-18.5 -28.5z" />
<glyph unicode="&#xfa;" horiz-adv-x="909" d="M20 920q0 45 89.5 127.5t138.5 82.5q27 0 26 13q0 8 -55 45t-131 78q-70 39 -43 100q18 37 60 28.5t131 -63.5l100 -65l35 39q37 39 61 38q27 0 44.5 20.5t55.5 20.5q23 0 30 -5t1 -15q-6 -20 3 -18t40 24q80 63 148 -22q51 -66 94 -151t43 -124q0 -31 -11.5 -50 t-37 -31.5t-72.5 -22.5q-74 -18 -80 -21q-4 -6 39 -53q55 -63 52 -107.5t-66 -74.5q-27 -12 -37 -26.5t-14 -39.5q-4 -29 -13.5 -39t-32.5 -10q-39 -6 -45 23q-6 25 -14 24.5t-43 -24.5q-41 -31 -105.5 -36t-109.5 19q-18 8 -30.5 20.5t-22.5 30t-23 45.5q-29 74 -51 80 q-31 6 -92.5 62.5t-61.5 77.5zM301 778q0 -39 41 -80q27 -27 43 -33t53 1q63 8 68.5 25.5t-43.5 60.5q-53 45 -86 65q-41 25 -58.5 15.5t-17.5 -54.5zM442 944q-6 -12 23 -31q27 -12 59 -43q39 -33 39 -16q2 18 -35 55q-66 68 -86 35zM569 1161q0 -8 9.5 -14t23.5 -11.5 t28.5 -8.5t30 -7t21.5 -6q43 -12 49.5 2.5t-20.5 67.5q-35 66 -45 65q-14 0 -55.5 -37.5t-41.5 -50.5z" />
<glyph unicode="&#xfb;" horiz-adv-x="858" d="M20.5 1194q-2.5 27 26.5 47q18 12 120.5 -7.5t233.5 -59.5q111 -35 129 -27q31 12 21 57t-55 101l-54 71l-43 -49q-49 -55 -80 -53q-8 2 -8 10t20.5 45t45 75t33.5 44q14 12 43 20q68 16 103.5 3t35.5 -54q0 -31 26 -61q68 -88 68 -158q0 -41 62 -104q49 -53 74.5 -128 t14 -129.5t-56.5 -54.5q-57 0 -71 111q-10 66 -21 61q-14 -6 -18 -135l-4 -137l-35 -4q-37 -4 -51 22l-15 29l-39 -29q-39 -29 -98 -35t-106 15q-31 12 -47.5 29.5t-30.5 52.5q-18 39 -29.5 49t-40.5 10q-39 0 -70.5 20.5t-31.5 43.5q0 10 6 23.5t16 23.5t22.5 17t22.5 7 q78 0 78 72q0 41 -16.5 56.5t-71.5 25.5q-45 6 -75.5 31.5t-33 52.5zM311 1032q0 -33 11 -41q12 -6 95 1.5t83 15.5q0 6 -36 17t-79 21l-43 11q-20 6 -25.5 2t-5.5 -27zM352 795q-27 0 10 -27q37 -25 64 -27q33 0 33 13q-6 14 -41 26q-45 14 -66 15z" />
<glyph unicode="&#xfc;" horiz-adv-x="948" d="M20 1405q0 25 21.5 47.5t52.5 30.5q35 8 129 -1t152 -30q68 -25 92 -12q31 16 63.5 8t36.5 -33q6 -41 75 -75.5t142 -34.5q41 0 69 -24t21 -54q-4 -29 -42.5 -42.5t-98.5 -6.5l-69 6v-49q0 -90 120 -140q45 -18 95.5 -65t50.5 -71.5t-21.5 -50.5t-44.5 -26q-18 0 -67 47 q-45 43 -90 54q-29 6 -36 3t-7 -22q0 -27 47 -55q45 -25 45 -57q0 -31 -20.5 -49.5t-49.5 -10.5q-82 20 -112.5 31.5t-53.5 32.5q-20 20 -29.5 22t-25.5 -14q-51 -47 -86 4q-20 27 -78 57q-35 18 -62.5 50t-43 72t-15.5 81q0 53 -20 76q-10 12 -34 57t-47.5 94.5t-41 93.5 t-17.5 56zM184 1343q0 -16 39 -26q20 -4 26.5 -17.5t8.5 -56.5q4 -66 41 -113q31 -41 94 -143q49 -82 76 -94t68 29q33 35 29.5 62.5t-44.5 59.5q-55 41 -44 83t77 42q29 0 29 27t-64 55q-61 27 -98 45q-33 16 -104.5 39t-106.5 23q-27 0 -27 -15z" />
<glyph unicode="&#x2000;" horiz-adv-x="805" />
<glyph unicode="&#x2001;" horiz-adv-x="1610" />
<glyph unicode="&#x2002;" horiz-adv-x="805" />
<glyph unicode="&#x2003;" horiz-adv-x="1610" />
<glyph unicode="&#x2004;" horiz-adv-x="536" />
<glyph unicode="&#x2005;" horiz-adv-x="402" />
<glyph unicode="&#x2006;" horiz-adv-x="268" />
<glyph unicode="&#x2007;" horiz-adv-x="268" />
<glyph unicode="&#x2008;" horiz-adv-x="201" />
<glyph unicode="&#x2009;" horiz-adv-x="322" />
<glyph unicode="&#x200a;" horiz-adv-x="89" />
<glyph unicode="&#x2010;" horiz-adv-x="339" d="M47 922q-65 61 29 180q43 53 62.5 62.5t49.5 -11.5q25 -18 17 -74l-6 -55l61 -4q45 -2 53.5 -8t8.5 -37q0 -27 -7.5 -34t-40.5 -9q-96 -10 -34 -43l12 -6q49 -16 57 -52q16 -61 -8.5 -93.5t-67.5 -10.5q-63 33 -88.5 48.5t-45 31.5t-22.5 26.5t-3 28.5q0 35 -27 60z" />
<glyph unicode="&#x2011;" horiz-adv-x="339" d="M47 922q-65 61 29 180q43 53 62.5 62.5t49.5 -11.5q25 -18 17 -74l-6 -55l61 -4q45 -2 53.5 -8t8.5 -37q0 -27 -7.5 -34t-40.5 -9q-96 -10 -34 -43l12 -6q49 -16 57 -52q16 -61 -8.5 -93.5t-67.5 -10.5q-63 33 -88.5 48.5t-45 31.5t-22.5 26.5t-3 28.5q0 35 -27 60z" />
<glyph unicode="&#x2012;" horiz-adv-x="339" d="M47 922q-65 61 29 180q43 53 62.5 62.5t49.5 -11.5q25 -18 17 -74l-6 -55l61 -4q45 -2 53.5 -8t8.5 -37q0 -27 -7.5 -34t-40.5 -9q-96 -10 -34 -43l12 -6q49 -16 57 -52q16 -61 -8.5 -93.5t-67.5 -10.5q-63 33 -88.5 48.5t-45 31.5t-22.5 26.5t-3 28.5q0 35 -27 60z" />
<glyph unicode="&#x2013;" horiz-adv-x="1061" d="M110 922q-220 61 99 180q146 53 212 62.5t168 -11.5q85 -18 58 -74l-21 -55l207 -4q153 -2 182 -8t29 -37q0 -27 -25.5 -34t-137.5 -9q-326 -10 -115 -43l40 -6q167 -16 194 -52q54 -61 -29 -93.5t-229 -10.5q-214 33 -300.5 48.5t-153 31.5t-76.5 26.5t-10 28.5 q0 35 -92 60z" />
<glyph unicode="&#x2014;" horiz-adv-x="2085" d="M200 922q-441 61 197 180q292 53 424.5 62.5t336.5 -11.5q170 -18 115 -74l-40 -55l414 -4q306 -2 363.5 -8t57.5 -37q0 -27 -51 -34t-275 -9q-652 -10 -231 -43l82 -6q332 -16 387 -52q108 -61 -58 -93.5t-458 -10.5q-428 33 -601.5 48.5t-305.5 31.5t-152.5 26.5 t-20.5 28.5q0 35 -184 60z" />
<glyph unicode="&#x2019;" horiz-adv-x="397" d="M26.5 940q18.5 37 71.5 45q14 2 19.5 4t10.5 16.5t6 33t5 65.5q4 86 15.5 115.5t56.5 80.5q49 55 104 9q49 -45 -2 -92q-20 -18 -18 -27.5t37 -40.5q33 -29 40 -47.5t7 -65.5q0 -31 -2 -47t-10.5 -29.5t-24.5 -29.5q-51 -51 -156.5 -71.5t-142.5 11.5q-35 33 -16.5 70z " />
<glyph unicode="&#x201c;" horiz-adv-x="569" d="M55 899q39 27 72 53q25 20 47.5 25.5t71.5 1.5q70 -2 99.5 16.5t57.5 83.5q25 60 35 74q12 16 42 16t46.5 -15t15.5 -51t-20 -67q-12 -23 -11 -32t19 -21q18 -16 20.5 -32.5t-11.5 -88.5l-19 -100h-65q-49 0 -58.5 5t-9.5 38q0 43 -8 51q-10 10 -58.5 -16.5t-64.5 -51.5 q-14 -20 -28.5 -26t-47.5 -6q-51 0 -84 16q-125 68 -41 127z" />
<glyph unicode="&#x201d;" horiz-adv-x="692" d="M37 1409q14 16 55 8q12 -2 35 -5t46.5 -6t47 -7t42 -10.5t26.5 -12.5q14 -12 28.5 -12t55.5 14q63 20 119 17q41 -2 48 -9.5t5 -37.5q0 -27 7 -40.5t28 -27.5q147 -90 61 -145q-25 -16 -36 -15.5t-42 19.5q-45 25 -108 30q-31 4 -44.5 7.5t-19.5 10.5t-8 21q-4 29 -21 29 q-20 0 -67 -20.5t-55 -32.5q-8 -14 -68 -15q-41 0 -50 5.5t-9 29.5q0 37 -47 88q-70 78 -29 117z" />
<glyph unicode="&#x2022;" d="M20 -142.5q0 13.5 1024 13.5t1024 -13.5t-1024 -13.5t-1024 13.5z" />
<glyph unicode="&#x202f;" horiz-adv-x="322" />
<glyph unicode="&#x205f;" horiz-adv-x="402" />
<glyph unicode="&#x20ac;" horiz-adv-x="831" d="M21.5 976q1.5 97 64.5 154q31 27 62.5 83.5t50.5 78.5q27 31 44 41t52 15q23 0 35 3t18 9t8 18q0 2 2 12.5t2 12.5t2.5 10t4.5 9t6 7.5t8 4.5t11 2t16 0q23 -2 32 -11.5t13 -33t15 -34.5t40 -22q59 -20 93 -47.5t56 -75.5q31 -63 91 -96q47 -27 60 -57.5t-7 -57.5 q-51 -59 -219 64l-56 39l-30 -33q-31 -29 -25 -43t49 -24q47 -8 96.5 -60.5t57.5 -101.5q6 -47 26 -107q18 -53 18.5 -73.5t-22.5 -43.5q-39 -45 -84 -4q-25 23 -87 6.5t-74.5 -49t-45 -31.5t-45.5 31q-12 31 -67 50q-53 14 -100.5 61t-55.5 92q-10 49 -49 70 q-68 35 -66.5 132zM152 969q2 -2 7 -5t11 -5.5t13 -3.5t14.5 0t13.5 2t10 3.5t4 6.5q0 12 -26 34q-16 14 -22.5 14.5t-16.5 -11.5q-18 -20 -8 -35zM227 786q4 -20 49.5 -53t61.5 -28q18 6 13 25.5t-27 21.5q-31 5 -54 30q-35 41 -43 21q-2 -6 0 -17zM229 1139 q-8 -25 15.5 -56.5t60.5 -44.5q41 -14 49 4q8 21 0 37q-4 16 -61 47q-37 20 -47 22.5t-17 -9.5zM457 909q-18 -49 57 -71q68 -20 64 8q-1 10 -13 24q-18 31 -59 44.5t-49 -5.5z" />
<glyph unicode="&#x25fc;" horiz-adv-x="1280" d="M0 0v1280h1280v-1280h-1280z" />
</font>
</defs>
</svg>
